<?xml version="1.0" standalone="no"?>
<!DOCTYPE svg PUBLIC "-//W3C//DTD SVG 1.1//EN" "http://www.w3.org/Graphics/SVG/1.1/DTD/svg11.dtd" >
<svg xmlns="http://www.w3.org/2000/svg">
<metadata>
This is a custom SVG webfont generated by Font Squirrel.
Copyright   : Generated in 2009 by FontLab Studio Copyright info pending
</metadata>
<defs>
<font id="DeibiRegular" horiz-adv-x="1024" >
<font-face units-per-em="2048" ascent="1536" descent="-512" />
<missing-glyph horiz-adv-x="507" />
<glyph unicode=" "  horiz-adv-x="507" />
<glyph unicode="&#x09;" horiz-adv-x="507" />
<glyph unicode="&#xa0;" horiz-adv-x="507" />
<glyph unicode="!" horiz-adv-x="333" d="M131 281q0 545 8 708q2 35 6 243q3 139 3 185q0 23 -1 23l19 -2h39l18 -2l-4 -430q0 -18 -2 -193.5t-5 -350.5t-3 -179zM133 2l84 -4l-4 188q-18 -2 -38 -3t-38 1z" />
<glyph unicode="&#x22;" horiz-adv-x="561" d="M27 1149q3 -5 12 -5q22 0 78 30q78 43 86 141l-78 10v24v48q0 33 -1 53t-3 20l40 -2l85 -4l43 -2q-14 -203 -58 -280q-18 -35 -68 -62.5t-91 -38.5l-41 -10zM250 1149q3 -5 12 -5q22 0 78 30q78 43 86 141l-78 10v25v47q0 33 -1 53t-3 20l40 -2l85 -4l43 -2 q-14 -203 -57 -280q-18 -35 -68.5 -62.5t-91.5 -38.5l-41 -10z" />
<glyph unicode="$" horiz-adv-x="915" d="M59 1167q0 84 32 145.5t84 93.5t102.5 47t103.5 20q23 2 76 2v65h18l37 -4h20q0 -31 -2 -70q160 -23 232 -104q37 -43 53 -102.5t19 -96.5l2 -39l-91 -8q1 13 1 25q0 90 -52 153q-59 72 -164 97q-3 -169 -3 -240q0 -35 1 -45q0 -90 -6 -322q121 -80 200 -146.5 t116 -139.5q43 -84 48 -169q1 -11 1 -22q0 -73 -29 -136q-33 -73 -121 -124t-223 -63v-101h-12q-8 0 -23.5 -1t-25.5 -1l-11 2v99q-4 0 -8 -1t-8 -1q-78 0 -137.5 20t-95 54t-59 74t-33 80t-13.5 73.5t-2 54.5v20l76 -6q0 -37 8 -78t30.5 -94t75 -90t127.5 -41q12 -2 39 -2 v138q0 79 -1 135.5t-1 62.5q0 188 2 356q-96 63 -144 99t-114.5 95.5t-95.5 117t-29 118.5zM150 1155q0 -55 47 -113.5t99 -99.5t148 -104q0 219 5 252q0 10 1 60t3 125t2 126h-18q-38 0 -76 -7q-48 -8 -100 -31.5t-82 -76.5q-29 -50 -29 -121v-10zM514 47q129 8 213 76 q80 66 80 211v14q-2 90 -77 168t-210 170q0 -61 -2 -127.5t-3 -104.5t-1 -40v-367z" />
<glyph unicode="%" horiz-adv-x="817" d="M0 2q2 6 187.5 328.5t197.5 353.5q8 23 93 211l165 365l82 176h24q21 0 46 -2h22q-336 -698 -360.5 -782.5t-360.5 -653.5q-86 0 -96 4zM66 1251.5q0 71.5 42 121.5t101 50t103 -51t44 -120.5t-44 -121t-103 -51.5t-101 50.5t-42 122zM135 1253q0 -41 21.5 -69.5 t52.5 -28.5t51.5 28.5t20.5 69.5t-20.5 71t-51.5 30t-52.5 -30t-21.5 -71zM446 174q0 72 42 122t101.5 50t103.5 -51t44 -121t-44 -121t-103.5 -51t-101.5 50t-42 122zM516 176q0 -41 21.5 -69.5t52.5 -28.5t51.5 28.5t20.5 69.5t-20.5 70.5t-51.5 29.5t-52.5 -29.5 t-21.5 -70.5z" />
<glyph unicode="&#x26;" horiz-adv-x="1167" d="M86 289q0 131 91 239.5t255 227.5q-147 180 -188 254q-39 68 -43 147v18q0 68 25 129q30 70 110 117t199 47q195 0 271.5 -86t76.5 -260q0 -55 -24.5 -106t-81 -102.5t-98.5 -83t-126 -89.5l338 -413q100 123 164 241l75 -22q-74 -137 -192 -277l184 -223l-43 -57 l-192 221q-219 -229 -426 -236h-14q-361 0 -361 314zM174 291q0 -78 25.5 -130t72.5 -75t89.5 -29t97.5 -6q184 2 381 215l-357 426q-147 -100 -228 -193t-81 -208zM281 1159q1 -64 38 -117q23 -37 183 -237l78 58l68 52q48 37 66 57l44 50q26 31 35.5 57.5t9.5 53.5 q0 145 -63 209q-60 59 -187 59h-16q-82 -2 -142.5 -38t-87.5 -88q-27 -49 -27 -109q0 -4 1 -7z" />
<glyph unicode="'" horiz-adv-x="385" d="M61 1149q3 -5 12 -5q22 0 79 30q78 43 86 141l-78 10v25v47q0 33 -1 53t-3 20l40 -2l85 -4l43 -2q-14 -203 -58 -280q-18 -35 -68.5 -62.5t-91.5 -38.5l-40 -10z" />
<glyph unicode="(" horiz-adv-x="739" d="M111 469q0 104 17 253.5t44 223.5q141 412 463 412l4 -86q-45 -6 -74.5 -13.5t-78 -28t-92.5 -65.5t-83 -112q-49 -84 -79.5 -262.5t-30.5 -323.5q0 -158 75.5 -347.5t133.5 -244.5q45 -43 66.5 -59.5t81.5 -32.5q48 -13 117 -13q17 0 36 1v-78q-12 0 -52 -1 q-21 -1 -34 -1t-19 1q-12 1 -47 3t-50 8l-45 17q-30 12 -48 28l-45 40q-27 24 -50.5 56.5t-48.5 73.5q-63 104 -112 263t-49 288z" />
<glyph unicode=")" horiz-adv-x="761" d="M78 -229q18 -1 36 -1q68 0 117 13q60 16 81.5 32.5t66.5 59.5q57 55 133 244.5t76 347.5q0 145 -31 323.5t-80 262.5q-39 68 -83 112.5t-92 65t-77.5 28t-74.5 13.5l4 86q322 0 462 -412q27 -74 44.5 -223.5t17.5 -253.5q0 -129 -49 -287.5t-113 -263.5q-29 -47 -57 -82 l-50 -60q-22 -24 -57 -40.5t-49 -24.5t-56 -13l-50 -6q-5 -1 -20 -1t-41 1q-52 1 -58 1q-1 39 -1 58.5t1 19.5z" />
<glyph unicode="*" horiz-adv-x="598" d="M27 784l204 154l-198 160l43 59q4 -4 172 -133q0 176 4 209l80 4q0 -2 -4 -227l186 139l47 -57q-6 -4 -34 -27l-76 -58l-91 -69l195 -152l-45 -67q-16 10 -186 145q0 -53 -2.5 -109.5t-3.5 -89t-1 -34.5l-73 -2q0 109 2 219q-133 -102 -166 -125z" />
<glyph unicode="+" horiz-adv-x="700" d="M31 735q72 0 258 -6q0 47 1 113.5t2 101.5t1 43l80 4q0 -74 -6 -264q203 -6 270 -6l2 -74q-141 0 -274 2q-6 -199 -7 -264l-73 -2q0 137 2 268q-45 0 -110.5 1t-99.5 2t-42 1z" />
<glyph unicode="," horiz-adv-x="483" d="M80 -162q2 -5 11 -5q21 0 79 28q78 43 86 141l-78 10v24v48q0 33 -1 53.5t-3 20.5l40 -2l85 -4l43 -2q-14 -203 -57 -281q-18 -35 -68.5 -62.5t-91.5 -37.5l-41 -11z" />
<glyph unicode="-" horiz-adv-x="677" d="M31 735q18 0 164.5 -3t291 -7t150.5 -4l2 -74q-440 0 -604 8z" />
<glyph unicode="." horiz-adv-x="374" d="M94 14l12 146l148 -6v-152z" />
<glyph unicode="/" horiz-adv-x="935" d="M47 2q2 6 202 319.5t212 344.5q8 23 87 215l152 372l72 183h25q20 0 43 -2h24q-307 -717 -332 -801q-10 -37 -107 -195l-189 -299l-93 -141q-86 0 -96 4z" />
<glyph unicode="0" horiz-adv-x="1155" d="M51 702q0 139 64 347q51 172 180 277.5t283 105.5q166 0 294.5 -124t190.5 -329q41 -133 41 -277q0 -117 -35 -248.5t-72 -185.5q-100 -141 -198.5 -217t-220.5 -76q-238 0 -398 254q-129 205 -129 473zM141 700q0 -158 71 -325.5t130 -224.5q94 -92 240 -93 q184 0 312 187.5t128 455.5q0 141 -58.5 292t-117.5 220q-111 133 -264 134q-201 0 -328 -191q-113 -168 -113 -455z" />
<glyph unicode="1" horiz-adv-x="499" d="M20 1319q0 -2 84 50l111 69v2l18 -2h37l21 -2l-4 -430q0 -18 -3 -186.5t-7.5 -334.5t-4.5 -172v-245h174l3 -60l-338 -16q-20 2 -37 2l6 69q55 2 121 3q0 45 -1 126.5t-1 88.5q0 545 8 708q0 10 2 70.5t4 143.5t2 136l-166 -92q-2 4 -5 12.5t-9 23.5t-10 26z" />
<glyph unicode="2" horiz-adv-x="796" d="M2 8l6 84q25 18 65 51t144.5 130.5t184 190.5t148 213t75.5 216q2 31 2 60q0 85 -17 155q-24 94 -66 144.5t-85 76t-84 27.5h-11q-43 0 -111 -14q-77 -15 -130 -31l-55 -17l-5 11l-11 22l-11 22q-4 9 -2 7l31 14q31 14 79 30.5t107 29.5q39 9 81 9q21 0 43 -2 q66 -7 125.5 -36t111 -102.5t79.5 -184.5q17 -74 17 -144q0 -44 -7 -86q-16 -110 -66 -212.5t-116.5 -191.5t-140.5 -160.5t-135.5 -124t-100.5 -80.5l-41 -27l670 2l-6 -90q-4 4 -385 6z" />
<glyph unicode="3" horiz-adv-x="825" d="M43 113l4 18q4 16 6 33l4 18q207 -98 244 -104q16 -2 46 -3h13q28 0 70 3q53 4 101.5 26.5t91.5 59.5t64 108q12 44 12 97q0 34 -5 71q-25 193 -239 219q-27 3 -52 3t-47 -3v97h29q18 0 64.5 15t82 46t64.5 102.5t29 174.5q0 115 -55.5 176t-134.5 66q-25 2 -49 2 q-54 0 -108 -8q-77 -11 -133 -32l-55 -20q-27 59 -33 63q206 94 349 94q147 0 227 -100q37 -45 57 -110q23 -74 25 -143v-16q0 -58 -12 -102q-15 -49 -38.5 -92t-50 -70.5t-51 -47t-39.5 -29.5l-16 -8q10 0 28.5 -2t63.5 -17.5t81 -41t67.5 -82t35.5 -134.5q1 -19 1 -38 q0 -137 -65 -235q-75 -110 -178 -150q-76 -29 -150 -29q-28 0 -56 4q-39 6 -76 15t-65.5 20.5t-54 23.5t-43 22.5t-31 20.5t-17.5 15z" />
<glyph unicode="4" horiz-adv-x="944" d="M29 524l651 910v6l18 -2h39l19 -2v-4h4l-4 -9q-2 -31 -4 -210q-1 -89 -1 -141t1 -66q0 -57 -9 -431q240 -12 250 -18l-6 -76q-125 12 -246 19q0 -43 -1 -89t-2 -71t-1 -27v-245h174l2 -60l-338 -16q-18 2 -36 2l6 69q55 2 121 3q0 45 -1 126.5t-1 88.5q0 109 2 223 q-45 2 -79 2t-57 -2l-444 -49zM123 528l99 16q61 9 206 24q127 12 215 12h23q4 389 6 409q0 10 1 63.5t3 131.5t2 129z" />
<glyph unicode="5" horiz-adv-x="819" d="M2 846q10 37 24 98l47 191l53 214q19 77 19 83q17 -2 61 -2q64 0 152 1t181 1h153h66q4 -4 4 -68q0 -2 -288 -7q-206 -4 -266 -4q-23 0 -24 1l-24 -107q-27 -106 -51 -213l-25 -106q14 -2 40 -4t98.5 -15.5t138 -32t146.5 -55.5t138 -83t97 -116.5t40 -154.5 q0 -141 -27.5 -237.5t-83 -147.5t-122 -72.5t-158.5 -21.5h-8q-221 0 -332 114l-14 17l8 16l16 33l9 18q12 -14 36.5 -33.5t103.5 -52t165 -32.5q158 2 244 99q81 92 81 307v26q-2 92 -74.5 162.5t-175 103.5t-204 53.5t-172.5 24.5z" />
<glyph unicode="6" horiz-adv-x="1015" d="M53 737q16 291 193 499q163 191 338 191q16 0 32 -2q213 -18 330 -174q18 -27 19 -26q-62 -58 -64 -58l-8 9q-6 8 -20 21l-30 30q-16 16 -38.5 33.5t-47 33t-53 26.5t-57.5 15q-22 3 -44 3q-177 0 -320 -195q-133 -185 -133 -477q0 -88 12 -187q0 29 6 61.5t31.5 82 t67.5 85t125 61.5q77 24 178 24h16q106 -2 182 -38t115 -95.5t56 -122t19 -136.5v-12q0 -199 -128 -317q-117 -107 -239 -107q-16 0 -32 2q-223 23 -373 248q-135 203 -135 465q0 28 2 57zM231 422v-10q0 -47 16 -98q19 -58 56 -115.5t108.5 -97.5t166.5 -46q12 -1 23 -1 q38 0 70 11q42 13 70.5 39.5t51 55t36 64.5t21.5 60.5t14 51.5l4 24q4 12 5 45v6q0 31 -10 80q-11 52 -36.5 98t-84 81t-140.5 37q-14 1 -28 1q-93 0 -160 -24q-78 -27 -115 -75t-51.5 -92t-16.5 -95z" />
<glyph unicode="7" horiz-adv-x="690" d="M20 1343q3 89 5 89h22h60q36 0 84.5 1t101.5 1h106h102h85h59h23l-4 -9l-246 -622q94 -2 141 -2t47 2v-19q-2 -18 -4 -39v-20h-12q-12 0 -32.5 1t-46.5 2t-57.5 2t-62.5 1l-35 -98l-221 -637q-86 0 -96 4l246 666l24 65h-2h-2h-2h-2h-2h-2h-2h-2h-2h-2h-2h-2h-2h-2 l-129 2l2 72q86 -2 182 -2l207 547z" />
<glyph unicode="8" horiz-adv-x="847" d="M27 360q0 88 27.5 157t67.5 103.5t80 58t68 30.5l27 6q-10 4 -26.5 13t-59.5 44t-75 77t-56 113q-22 62 -22 130q0 11 1 22q4 100 45 169t103.5 98.5t114 40t104.5 10.5q51 0 106.5 -15.5t114 -50.5t96 -105.5t37.5 -166.5q0 -45 -8 -86t-22.5 -73t-33 -60.5t-38 -50 t-40 -40t-38.5 -31t-32.5 -20.5t-22.5 -12l-8 -4h10q10 -2 26.5 -6t38 -11.5t45 -20.5t47 -31.5t45 -47.5t38 -64.5t26.5 -86t10 -107.5q0 -98 -32.5 -172t-91 -115t-124 -60.5t-141.5 -19.5q-66 0 -132 19.5t-131 61.5t-104.5 121t-39.5 183zM102 348q0 -129 104.5 -222 t235.5 -93q127 0 218.5 93t91.5 224t-99.5 226.5t-228.5 95.5t-225.5 -96.5t-96.5 -227.5zM141 1057q0 -111 94.5 -204t196.5 -93q100 0 184 105.5t84 219.5q0 111 -84 192t-198 81q-133 0 -205 -89t-72 -212z" />
<glyph unicode="9" horiz-adv-x="995" d="M31 172q61 57 63 57l8 -8q6 -8 20 -22l30 -29q16 -16 38.5 -33.5t47 -33t53 -26.5t57.5 -16q22 -3 44 -3q177 0 321 196q133 184 133 474q0 89 -12 187q0 -29 -6.5 -61.5t-33 -80.5t-68.5 -85t-125 -62q-77 -22 -175 -22h-16q-106 2 -182 38t-115 95.5t-56.5 122 t-19.5 135.5v12q0 196 126 310q126 113 264 113h9q258 -6 392 -230q116 -195 116 -463q0 -38 -2 -78q-16 -291 -194 -499q-163 -190 -338 -190q-16 0 -31 1q-213 18 -330 174zM122 991v-6q0 -31 10 -79q11 -52 37 -98t84 -81t140 -37q15 -1 29 -1q92 0 159 23 q78 27 115 75.5t51.5 92.5t16.5 95v19q0 48 -8 92q-11 53 -42.5 115.5t-107.5 100t-188 39.5q-51 0 -93 -14t-71 -39.5t-51.5 -54.5t-35.5 -65l-21 -59q-9 -24 -15 -48l-4 -25q-4 -12 -5 -45z" />
<glyph unicode=":" horiz-adv-x="354" d="M100 16l13 146l147 -6v-152zM100 410l13 145l147 -6v-152z" />
<glyph unicode=";" horiz-adv-x="333" d="M-6 -162q4 -4 12 -4q23 0 78 27q78 43 86 141l-78 10v24v48q0 33 -1 53.5t-3 20.5l40 -2l85 -4l43 -2q-14 -203 -57 -281q-18 -35 -68.5 -62.5t-91.5 -37.5l-41 -11zM98 410l13 145l147 -6v-152z" />
<glyph unicode="=" horiz-adv-x="757" d="M31 551q18 0 186 -3t333 -7t171 -4l2 -74q-524 0 -688 8zM31 815q18 0 186 -3t333 -7t171 -4l2 -74q-524 0 -688 8z" />
<glyph unicode="?" horiz-adv-x="761" d="M23 1401l10 4l27 7l42 11q23 7 53.5 13t62.5 11t69 9t69 6q16 1 32 1q39 0 76 -4q50 -5 113.5 -29.5t104.5 -68.5t65 -132q14 -55 14 -122q0 -41 -5 -85q-31 -266 -350 -375q-111 -39 -207 -45q25 -324 28 -323l-84 -3l-28 375q12 6 111.5 30t188.5 53.5t172 104 t93 179.5q3 36 3 68q0 65 -13 115q-21 75 -69 112t-101.5 53t-124.5 18h-28q-153 0 -294 -61q-28 78 -30 78zM154 2l84 -4l-5 188q-18 -2 -37.5 -3t-37.5 1z" />
<glyph unicode="@" horiz-adv-x="1382" d="M33 571q0 184 44 332t117.5 239t156.5 143t171 67q20 10 110 17q32 2 67 2q66 0 143 -8q119 -13 178 -54q70 -49 84 -151q6 -45 6 -100q0 -74 -11 -168q-18 -165 -18 -208q0 -86 8.5 -251t16.5 -288l10 -120q-82 2 -82 6l-12 172q-25 -18 -67 -44t-144 -68 q-93 -38 -163 -38h-13q-68 0 -138.5 25.5t-139 82t-101.5 164.5q-20 65 -20 144q0 50 8 106q14 96 76.5 161t144.5 89.5t175 39t170 16.5t129 13t52 36q2 31 10 93q10 70 10 99q0 31 -17 70q-17 41 -58 67q-39 27 -112 37q-52 6 -99 6h-33q-59 -4 -119 -10l-59 -6 q-4 -4 -4 -2q0 4 -40 -10.5t-97.5 -57.5t-116.5 -115.5t-102 -210.5t-48 -315v-26q0 -139 39 -255q43 -126 115 -206t162 -134t183 -75q81 -17 154 -17h21q82 3 142 27q88 37 136 68t113.5 98.5t87.5 180.5q14 67 14 149q0 59 -7 125l-62 641q4 0 9 1l22 4q16 3 21 3h10 l4 -24q4 -25 10 -67t13 -97.5t14.5 -122t13.5 -136t9 -142t3 -140.5t-5 -130t-17 -110q-35 -141 -151 -239.5t-266 -134.5q-81 -18 -161 -18q-70 0 -139 14q-236 49 -397.5 252.5t-163.5 508.5zM340 352q41 -104 117 -170q72 -53 163 -53q25 0 52 4q123 19 227.5 65 t112.5 68q3 6 3 40q0 39 -4 114q-7 141 -16.5 274t-11.5 131l-6 -2q-6 -2 -20 -5l-28 -6q-14 -3 -37 -7l-38 -7q-16 -3 -43 -8.5t-39 -7.5q-6 0 -70.5 -5t-103.5 -13t-97.5 -27.5t-98.5 -57.5t-58 -93q-24 -68 -24 -128q0 -56 20 -106z" />
<glyph unicode="A" horiz-adv-x="989" d="M43 4l27 115l72 300l87 367q-18 4 -24 9q-68 25 -146 118l43 48q25 -31 97 -74q25 -14 49 -25l65 270l52 224l18 69l113 5l493 -1426q-82 -12 -84 -12l-252 758q-45 -2 -83 -2t-70 2q-139 10 -191 18q-147 -629 -153 -651l-47 -117zM328 844q16 -2 49 -2q57 -6 252 -23 q-178 537 -180 537q-4 0 -121 -512z" />
<glyph unicode="B" horiz-adv-x="1052" d="M123 0v-1l2 366q2 387 4 689q1 151 1 245t-1 131q-2 4 28.5 11t77 13t78.5 6q45 0 93.5 -2t150.5 -19.5t176 -47t135.5 -94t63.5 -152.5v-8q0 -228 -451 -410q-55 -23 -55 -25t12 -2q14 1 29 1q61 0 146 -13q108 -16 230 -70.5t158 -136.5q22 -50 22 -101q0 -75 -46 -155 q-76 -135 -178 -196q-47 -29 -217 -34q-77 -2 -149 -2q-86 0 -165 3q-108 5 -136 5zM195 130q0 -58 2 -56l49 -4q47 -4 118.5 -9.5t148.5 -6.5h15q69 0 131 8q69 9 101 32q90 63 152 180q37 69 38 119q0 34 -18 58q-45 63 -210 126q-147 56 -239 57q-12 0 -22 -1 q-24 -2 -51 -2q-33 0 -69 3q-65 5 -101.5 10t-38.5 3t-3 -62.5t-2 -144.5t-1 -168v-142zM207 1231q2 -158 2 -316v-157q25 4 66.5 10t148 34.5t188.5 64.5t152 101.5t74 143.5v19q0 34 -6 63q-8 37 -26 63.5t-38 47t-50 33t-53.5 20.5t-56.5 12l-50 6q-17 2 -44 3t-29 1 q-59 4 -175 8q-80 3 -101 4q-8 0 -8 -1v-3q0 -4 0.5 -11t1 -16.5t1.5 -23t1.5 -29t1 -35.5t0.5 -42z" />
<glyph unicode="C" horiz-adv-x="925" d="M53 705v15q1 209 109 397q112 195 282 259q100 37 210 51q97 13 154 13h16q60 -2 59 -6l-4 -72q-25 1 -49 1q-203 0 -365 -75q-139 -63 -224 -214.5t-94 -366.5v-22q0 -131 65 -268q71 -149 177.5 -245t202.5 -100q20 -1 39 -1q67 0 124 11q74 14 103 31l29 16l18 -92 q-12 -6 -36.5 -14.5t-105.5 -21.5t-171 -13q-123 0 -250 119.5t-207 286.5t-82 311z" />
<glyph unicode="D" horiz-adv-x="1058" d="M123 76q0 80 1 206t2 282.5t1 308t1 282.5t1 207v80q274 0 412 -17q61 -8 138 -54t151.5 -124t126 -200.5t51.5 -262t-50.5 -286t-121 -250t-145.5 -172t-128 -74.5q-61 -6 -170 -7h-69q-66 0 -119 1h-80zM209 74q121 -13 206 -13q140 0 187 35q80 61 194.5 254 t131.5 379q2 28 2 56q0 176 -99 335q-114 183 -266 215q-88 18 -175 24q-50 3 -87 3q-27 0 -46 -2q-46 -4 -44 -8z" />
<glyph unicode="E" horiz-adv-x="937" d="M123 281q0 545 8 708q2 35 6 243q3 139 3 185q0 23 -1 23l19 -2h39l18 -2h98q29 -2 221 -2h230q27 0 63.5 2t61.5 2l22 2l7 -80l-705 4q-4 -183 -4 -275q0 -62 2 -83q0 -76 -6 -287q52 3 83 3q15 0 25 -1q29 -2 165 -3t159 -1q25 0 65.5 -1t63.5 -3h25l2 -68l-588 4 q-8 -328 -8 -336v-247q12 0 55 2t61 0q29 -2 221 -2h230q27 0 63.5 2t61.5 2l22 2l7 -80l-775 6v2h-18v66q0 50 -1 126t-1 89z" />
<glyph unicode="F" horiz-adv-x="876" d="M123 281q0 545 8 708q2 35 6 243q3 139 3 185q0 23 -1 23l19 -2h39l18 -2h98q29 -2 232 -2h239q27 0 64 2t61 2l23 2l6 -80l-725 4q-4 -183 -4 -275q0 -62 2 -83q0 -76 -6 -287q52 3 83 3q15 0 25 -1q29 -2 165 -3t159 -1q25 0 71 -1t74 -3h29l2 -68l-608 4 q-8 -328 -8 -336v-313h-13q-9 0 -24 -1h-9q-9 0 -16 1h-10v66q0 50 -1 126t-1 89z" />
<glyph unicode="G" horiz-adv-x="995" d="M62 649q-10 57 -10 112q0 69 15 133q25 116 80.5 195.5t113.5 134t118 85.5q39 20 95 39.5t111 33.5l101 27q47 12 76 18l31 7q4 -57 4 -58q-14 -2 -39 -7t-96.5 -26.5t-135 -49t-141.5 -79t-133 -113t-90 -152.5q-31 -82 -31 -175v-22q6 -147 55.5 -268.5t117 -194 t144 -120.5t136.5 -65q43 -12 74 -12q11 0 20 2q72 12 145 12l56 574q-270 -27 -353 -33h-18q-28 0 -61 4q-44 6 -70 15l-25 8q14 70 14.5 72t23 -2.5t54.5 -11.5l56 -13q11 -3 39 -3q100 0 415 40l-63 -697q0 -10 -53 -10v-4q-106 -29 -256 -31q-57 0 -137 49.5t-158 130 t-141.5 203.5t-83.5 252z" />
<glyph unicode="H" horiz-adv-x="1091" d="M-86 926l55 18l4 -14q4 -12 12.5 -41t18.5 -58q16 -41 37.5 -55t73.5 -28q12 -2 18 -5q47 -12 80 -12q0 225 4 258q2 35 6 243q3 139 3 185q0 23 -1 23l19 -2h39l18 -2l-4 -430q0 -76 -6 -287q52 3 83 3q15 0 25 -1q29 -2 165 -3t158.5 -1t82 -1t76.5 -3q0 51 1 123.5 t2 108.5t1 44q2 35 6 243q3 139 3 185q0 23 -1 23l18 -2h39l19 -2l-4 -430q0 -18 -3.5 -186.5t-7.5 -334.5t-4 -172v-313h-12q-8 0 -24 -1h-9q-9 0 -16 1h-10v65q0 50 -1 126.5t-1 89.5q0 193 2 364l-588 4q-8 -328 -8 -336v-313h-13q-9 0 -24 -1h-9q-9 0 -16 1h-10v65 q0 50 -1 126.5t-1 89.5q0 203 2 378q-29 2 -96 15q-135 23 -191 207z" />
<glyph unicode="I" horiz-adv-x="438" d="M41 1382l2 60q0 2 37 2t91 -1l109 -2q54 -1 93 -3h37q4 -70 6 -70q-6 0 -37 -2q-4 -1 -19 -1q-30 0 -102 3q-4 -184 -4 -278q0 -62 2 -84q0 -18 -3 -186.5t-7 -334.5t-4 -172v-245h174l2 -60l-338 -16q-18 2 -37 2l6 69q55 2 121 3q0 45 -1 126.5t-1 88.5q0 545 8 708 q2 23 8 383z" />
<glyph unicode="J" horiz-adv-x="417" d="M-307 -139l61 22q12 -25 32.5 -60.5t88.5 -101t139 -75.5q12 -2 24 -2q30 0 54 12q33 16 47.5 39.5t22.5 66.5t9 65.5t1 61.5v111h-2v66q0 49 -1 125.5t-1 89.5q0 545 8 708q2 23 8 383l-143 10l2 60q0 2 37 2t91 -1l109 -2q54 -1 93 -3h37q4 -70 6 -70q-6 0 -37 -2 q-4 -1 -19 -1q-29 0 -102 3q-4 -184 -4 -278q0 -62 2 -84q0 -18 -3 -186.5t-7 -334.5t-4 -172v-313q0 -227 -11 -268q-8 -31 -34.5 -68t-72.5 -71q-35 -25 -87 -25q-15 0 -32 2q-73 10 -155 76q-111 88 -157 215z" />
<glyph unicode="K" d="M123 281q0 545 8 708q2 35 6 243q3 139 3 185q0 23 -1 23l19 -2h39l18 -2l-4 -430q0 -8 -1 -38t-2 -89.5t-1 -106.5q139 70 174 98q45 37 498 594q2 -2 6 -4t14 -9t19.5 -13t18.5 -12.5t13 -8.5l6 -4l-41 -49l-115 -136l-132 -157l2 -6q12 -49 34 -130l80 -293 q60 -212 114 -381t118.5 -323.5t109.5 -189.5v-92q-78 31 -177 248t-155.5 398t-93.5 325l-96 370q-139 -164 -168 -186q-66 -51 -231 -131q-8 -348 -8 -367v-313h-13q-9 0 -24 -1t-25 1h-10v65q0 50 -1 126.5t-1 89.5z" />
<glyph unicode="L" horiz-adv-x="389" d="M123 -137l12 205q0 43 -1 124.5t-1 88.5q0 545 8 708q3 35 7 243q3 144 3 188q0 20 -1 20l18 -2h37l20 -2l-4 -430q0 -18 -3 -186.5t-7 -334.5t-4 -172v-313h-2q0 -55 -4 -72q-2 -4 45 -10t127 -23.5t139 -44.5q29 -12 74 -34.5t62.5 -29.5t56 -20.5t54 -10.5t58.5 5 q47 10 88 33t60 39l18 18q2 -4 6 -10l13 -20q9 -14 14 -21l6 -8l-8 -6l-23 -17l-35 -23t-44.5 -24.5t-53.5 -19.5q-30 -8 -60 -12q-15 -2 -30.5 -2t-32.5 2q-90 10 -221 71.5t-149 67.5q-37 12 -97.5 20.5t-103.5 12.5z" />
<glyph unicode="M" horiz-adv-x="1241" d="M123 281q0 545 8 708q8 156 8 438l-2 7h2v6l19 -2h39l18 -2v-2h4l408 -1104l409 1104h6v6l19 -2h37l20 -2l-4 -430q0 -18 -3 -186.5t-7 -334.5t-4 -172v-313h-12q-9 0 -24 -1h-10q-9 0 -16 1h-10v66q0 50 -1 126t-1 89q0 545 8 708q0 8 1 44t3 90.5t2 99.5l-370 -1000 h-84l-375 1010v-227q0 -18 -3 -186.5t-7 -334.5t-4 -172v-313h-13q-10 0 -24 -1h-9q-9 0 -16 1h-10v66q0 50 -1 126t-1 89z" />
<glyph unicode="N" horiz-adv-x="1038" d="M123 281q0 545 8 708q2 35 6 243q3 139 3 185q0 23 -1 23l19 -2h39l18 -2v-4l16 -2l611 -1258q4 430 4 576q0 33 -5 253t-7 240q-2 8 -3.5 31.5t-1.5 50.5t-1 52.5t-1 41.5v15l21 2l41 4l22 4q-1 -51 -1 -89q0 -76 3 -100v-1253h-18h-35l-18 2l-629 1288q-3 -169 -3 -239 q0 -35 1 -45q0 -18 -3 -186.5t-7 -334.5t-4 -172v-313h-13q-9 0 -24 -1h-9q-9 0 -16 1h-10v66q0 50 -1 126t-1 89z" />
<glyph unicode="O" horiz-adv-x="1183" d="M51 702q0 139 64 347q36 121 118 213q150 170 355 170t360 -189q45 39 82 53q104 38 179 39q13 0 26 -2v-88q-13 1 -26 1q-115 0 -187 -50l-27 -20q53 -86 88 -197q41 -133 41 -277q0 -117 -34.5 -248.5t-71.5 -185.5q-209 -293 -430 -293q-121 0 -226.5 68t-181.5 186 q-129 205 -129 473zM141 700q0 -158 71 -325.5t130 -224.5q94 -92 250 -93q186 0 318 188.5t132 454.5q0 195 -114 416q-239 -200 -471 -200q-33 0 -66 4q-162 18 -186 141q-64 -154 -64 -361zM233 1262l11 -11zM275 1131q-1 -8 0 -15q0 -28 10 -51q14 -29 64 -51 q46 -20 120 -19h14q88 2 170 36t127 66.5t105 88.5l-19 26q-110 134 -274 134q-172 0 -297 -138q-4 -8 -10 -23.5t-10 -53.5z" />
<glyph unicode="P" d="M-266 838q6 2 17 7t51 13t86 12q20 2 46 2q32 0 74 -3q74 -5 152 -21q4 139 4 141q8 147 8 428q-4 19 -2 21h2v2q2 -2 6 -2q37 4 92 7q41 2 108 2h48q102 -1 195.5 -21.5t182.5 -56.5t143 -110.5t54 -177.5v-7q0 -124 -67 -206q-69 -84 -160.5 -112.5t-204.5 -34.5 q-57 -3 -101 -3t-76 3q-63 6 -99 14l-53 10l-5 -189q-3 -107 -4.5 -173t-1.5 -70v-313h-12q-7 0 -23 -1h-10q-9 0 -16 1h-10v66q0 50 -1 126t-1 89q0 80 4 477q-197 27 -265 27q-11 0 -18 -1q-33 -4 -60.5 -12t-37.5 -14l-12 -6zM242 831q152 -20 301 -20t262 62.5 t115 179.5v6q0 140 -92 206q-94 66 -277 95q-120 18 -217 18q-47 0 -88 -4q-4 -185 -4 -281q0 -64 2 -87q0 -84 -2 -175z" />
<glyph unicode="Q" horiz-adv-x="1148" d="M51 702q0 139 64 347q51 170 184 276.5t289 106.5q166 0 300 -125t195 -328q41 -133 41 -277q0 -117 -34.5 -248.5t-71.5 -185.5q-59 -80 -119 -143q23 -18 54.5 -46t39.5 -34q50 -39 144 -39q29 0 63 4l-4 -90q-23 -7 -50 -7q-59 0 -138 34q-41 16 -172 123 q-117 -94 -248 -95q-121 0 -226.5 68t-181.5 186q-129 205 -129 473zM141 700q0 -125 45 -258t105 -225q156 78 287 78q111 0 268 -125q90 88 143 227.5t53 302.5q0 141 -58 292t-118 220q-111 133 -274 134q-96 0 -186.5 -50.5t-151.5 -140.5q-113 -168 -113 -455zM342 150 q94 -93 250 -93q96 0 186 58q-123 96 -198 104h-16q-98 0 -222 -69z" />
<glyph unicode="R" d="M-285 838q6 2 17.5 7t51.5 13t86 12q20 2 46 2q32 0 74 -3q74 -5 151 -21q4 139 4 141q8 147 9 428q-4 19 -2 21h2v2q2 -2 6 -2q37 4 91 7q40 2 108 2h48q102 -1 195.5 -21.5t182.5 -56.5t143.5 -110.5t54.5 -180.5q0 -292 -340 -349q33 -49 55 -111l105 -239 q121 -276 193.5 -387t189.5 -156q34 -11 64 -11q13 0 25 2q40 7 70.5 31.5t51 51.5t30.5 49l11 21l57 -60l-10 -19q-6 -12 -30.5 -41.5t-55.5 -52t-85 -37.5q-43 -12 -91 -13q-12 0 -25 1q-63 4 -115.5 31t-90.5 71t-61.5 79.5t-50 88t-34.5 66.5q-18 27 -211 469 q-29 68 -51 109q-14 27 -72 45q-19 -1 -38 -1q-103 0 -200 19l-53 10q-2 -82 -4 -189t-4 -173t-2 -70v-313h-13q-9 0 -23.5 -1t-24.5 1h-11v66q0 50 -1 126t-1 89q0 80 4 477q-197 27 -264 27q-11 0 -18 -1q-33 -4 -60.5 -12t-40.5 -14l-10 -6zM223 831q152 -20 301.5 -20 t262 62.5t114.5 179.5v6q0 140 -92 206q-94 66 -277 95q-120 18 -217 18q-47 0 -88 -4q-4 -185 -4 -281q0 -64 2 -87q0 -84 -2 -175z" />
<glyph unicode="S" horiz-adv-x="933" d="M53 1167q0 84 32 145.5t84 93.5t102.5 47t103.5 20q106 8 214.5 -19t166.5 -92q37 -43 53 -102.5t18 -96.5l2 -39l-90 -8q8 121 -66.5 195.5t-199.5 87.5q-43 4 -92 -1t-107.5 -25.5t-95.5 -77t-35 -140.5q2 -66 60.5 -132.5t147.5 -126.5l181 -121q93 -60 178 -133 t121 -144q47 -92 49.5 -182.5t-39.5 -166t-150.5 -122.5t-270.5 -47q-78 0 -137.5 20t-95 54t-59.5 74t-33 80t-13 73.5t-4 54.5l2 20l76 -6q0 -37 8 -78t30.5 -94t75 -90t127.5 -41q72 -4 133.5 3t129 35t105.5 95.5t36 167.5q-2 86 -80 171q-77 85 -187 157l-220 144 q-110 72 -185.5 162.5t-75.5 184.5z" />
<glyph unicode="T" horiz-adv-x="770" d="M0 1382l6 84q14 -2 45 -11t56.5 -13t62.5 -4q119 0 265.5 14t232.5 27l88 12l2 -21l8 -36l2 -19l-37 -6q-37 -4 -105.5 -14.5t-127.5 -16.5q-61 -8 -92 -10q0 -256 8 -379q8 -164 8 -708q0 -12 -1 -89t-1 -127v-65h-19h-34h-19v313q0 6 -4 172t-7 334t-3 187 q0 127 -4 356q-40 -3 -80 -3q-121 0 -250 23z" />
<glyph unicode="U" horiz-adv-x="1064" d="M102 1436h6q4 0 14.5 1t19 1t17.5 1t13 1h6q-1 0 -1 -23q0 -46 3 -185q4 -208 6 -243q10 -175 10 -379q0 -114 -3 -237q2 -25 8 -54.5t27.5 -73.5t54 -79t92 -61.5t135.5 -28.5h18q87 0 154 35q74 39 110.5 100t52 100t21.5 70q-12 516 -12 608v17l-4 430h6q4 0 14.5 1 t18.5 1t17 1t16 1h4q-1 0 -1 -23q0 -46 3 -185q4 -208 6 -243q2 -33 8 -602v-106q0 -12 -1 -89t-1 -126v-66h-18h-35h-19v188q-116 -184 -337 -184h-21q-109 4 -188.5 46t-116.5 92.5t-58.5 112.5t-24.5 90t-3 42l-13 619z" />
<glyph unicode="V" horiz-adv-x="983" d="M0 1427l86 7l418 -1305q215 528 219 537q8 25 50 216l80 372q38 180 38 182h24q21 0 43 -2h25q-164 -717 -188 -801q-9 -37 -71 -195l-118 -299l-57 -141q-86 0 -96 4z" />
<glyph unicode="W" horiz-adv-x="1331" d="M0 1427l76 7l377 -1330l204 510l-151 535l76 6l114 -416q12 61 30.5 164t30 173.5t11.5 72.5h23q18 0 40 -2h21q-86 -430 -111 -514l-8 -25l141 -504l228 564q8 25 45 216t68.5 370.5t31.5 181.5h23q18 0 41 -2h20q-143 -717 -168 -801q-9 -37 -71 -195l-117 -299 l-57 -141q-72 0 -82 4h-2l-142 494l-196 -498q-72 0 -82 4h-2z" />
<glyph unicode="X" horiz-adv-x="899" d="M20 2q2 6 202 319.5t212 344.5q2 6 2 8l-389 753l86 7l344 -662l103 256l120 293l45 115h25q21 0 45 -2h23q-242 -565 -314 -752l355 -682l-93 2l-303 582q-37 -70 -129 -216l-166 -257l-71 -113q-86 0 -97 4z" />
<glyph unicode="Y" horiz-adv-x="882" d="M20 1430q0 2 45.5 3t47.5 -1l151 -281l211 -379q199 436 209 463q8 23 45 114t37 89t86 -6h8q-2 0 -134 -293t-140 -314l-62 -141q-2 -41 -5 -127t-6 -150.5t-3 -87.5v-313h-12q-9 0 -24 -1t-25 -1l-11 2v66q0 49 -1 125.5t-1 89.5q0 242 6 360q-231 401 -243 436 q-6 14 -51 101l-87 166z" />
<glyph unicode="Z" horiz-adv-x="1040" d="M41 2v66q340 602 412 675q33 33 141 184l202 286q93 135 91 137l-719 -8v90l829 4l2 -88q-356 -510 -438 -609q-16 -20 -49 -67l-72 -106l-82 -127l-82 -131l-73 -115l-51 -82l-21 -31q-2 2 78 2t168 -1t106 -3q7 -1 25 -1q90 0 457 17l-2 -90h-230q-231 -2 -463 -2h-229 z" />
<glyph unicode="[" horiz-adv-x="507" d="M115 281q0 545 8 708q2 35 6 243q3 139 3 185q0 23 -1 23l6 -2q6 0 18.5 -1t20.5 -1q264 6 293 6l-10 -82h-45q-47 2 -104 2h-105q-4 -183 -4 -275q0 -61 2 -81q0 -18 -3 -186.5t-7.5 -334.5t-4.5 -172v-239q270 0 271 4l10 -82h-20q-20 0 -52 1t-69 2t-75 1h-65h-12 q-8 0 -23.5 -1t-25.5 1h-10v66q0 49 -1 125.5t-1 89.5z" />
<glyph unicode="\" horiz-adv-x="927" d="M47 1434h14q9 0 32.5 1t31.5 1h14l74 -183l151 -373l87 -214q12 -31 211.5 -344.5t201.5 -319.5l-96 -4q-365 551 -389 635q-10 37 -93 237l-161 383z" />
<glyph unicode="]" horiz-adv-x="569" d="M117 -4l10 82q0 -4 270 -4v239q0 6 -4 172t-7 334t-3 187q0 131 -4 356h-103q-57 0 -104 -2h-45l-10 82q23 0 293 -6l45 4q-1 0 -1 -23q0 -46 3 -185q4 -208 6 -243q8 -164 8 -708q0 -12 -1 -89t-1 -126v-66h-18h-35h-19z" />
<glyph unicode="`" horiz-adv-x="471" d="M39 1731l76 55q33 -76 84 -111q29 -20 84 -45.5t97 -42t46 -16.5q-4 -4 -12 -35l-11 -33h-1q-6 0 -57 19q-56 20 -123.5 47.5t-92.5 44.5q-14 10 -29.5 26.5t-26 32t-18.5 28.5t-12 21z" />
<glyph unicode="a" d="M49 573q14 96 76.5 161t144.5 89.5t175.5 39t170 16.5t129 13t52.5 36q2 31 10 93q9 70 9 99q0 32 -17 70q-18 41 -58 67q-33 23 -103.5 35.5t-145.5 15.5q-56 2 -109 2h-36q-71 -1 -118 -3h-45q-2 0 0 11t6.5 28.5t4.5 25.5q-2 8 126 13q26 1 54 0q107 0 231 -13 q158 -18 219 -63q71 -49 85 -151q6 -45 6 -103q0 -73 -10 -165q-18 -165 -19 -208q0 -86 9 -251t17 -288l9 -120q-82 2 -82 6l-13 172q-25 -18 -67 -44t-144 -68q-94 -38 -163 -38h-13q-68 0 -138.5 25.5t-139 82t-100.5 164.5q-20 67 -21 146q0 50 8 104zM145 352 q40 -105 117 -170q72 -53 163 -53q25 0 52 4q123 19 227.5 65t112.5 68q3 6 3 40q0 39 -4 115q-7 141 -16.5 273.5t-11.5 130.5l-6 -2q-6 -2 -19 -5t-27.5 -6t-37.5 -7l-39 -7q-16 -3 -42.5 -8.5t-38.5 -7.5q-6 0 -71 -5t-103.5 -13t-97 -27.5t-98.5 -57.5t-58 -93 q-24 -68 -24 -129q0 -55 19 -105z" />
<glyph unicode="b" horiz-adv-x="1083" d="M123 281q0 545 8 708q2 31 4 361q1 165 1 248t-1 83l19 -2h39l18 -2q-2 -315 -2 -512q27 16 60.5 32.5t98 41.5t125 39t133 14t130.5 -24q276 -116 275 -589q0 -37 -1 -75q-6 -158 -39 -277.5t-75 -187t-104 -107.5t-109 -52q-38 -10 -87 -11q-12 0 -23 1q-63 3 -85 9 l-53 13q-6 2 -9 2q-102 20 -249 151v-145h-12q-9 0 -24.5 -1t-25.5 1h-10v66q0 50 -1 126t-1 89zM197 262q18 -29 42.5 -57.5t67.5 -65.5t107.5 -59.5t138.5 -22.5q92 0 160.5 31t108.5 78t64.5 126t35 154.5t14.5 184.5q1 31 1 61q0 91 -13 165q-18 99 -48 158.5t-77 100.5 t-86 58.5t-87 24.5q-42 6 -64 6h-5q-21 -1 -45 -3q-80 -10 -303 -121v-33q0 -18 1 -29t1 -13q0 -18 -3 -186.5t-7 -334.5t-4 -172v-51z" />
<glyph unicode="c" horiz-adv-x="774" d="M51 702q0 166 64 347q47 137 154.5 227t219 124t224.5 34l4 -86q-6 0 -19 -2q-324 -35 -444 -191q-113 -145 -113 -455q0 -158 71 -325.5t130 -224.5q43 -43 183.5 -69t228.5 -25v-79q-70 0 -111 2.5t-116.5 14.5t-128 36.5t-114 76t-104.5 122.5q-129 213 -129 473z" />
<glyph unicode="d" horiz-adv-x="1083" d="M53 670q6 158 39 277.5t75 187t104.5 107.5t109.5 52q37 10 83 10q13 0 27 -1q63 -3 85 -8t53 -13q6 -2 8 -2q104 -23 235 -141v538h6q4 0 14.5 1t19 1t17.5 1t13 1h6q-1 0 -1 -82.5t1 -248.5q2 -330 4 -361q8 -164 9 -708q0 -12 -1 -89q-2 -76 -2 -126v-66h-16h-37h-18 v113l-2 2q-6 -4 -19.5 -11.5t-52.5 -27t-78 -34.5t-94 -31.5t-105 -23.5q-32 -4 -67 -4q-20 0 -40 1q-56 4 -101 22q-277 116 -277 592q0 35 2 72zM147 643l-2 -61q0 -91 15 -166q18 -99 48 -158t77 -100t86 -58.5t87 -24.5q42 -6 64 -6h6q21 1 43 3q39 4 168.5 59.5 t147.5 67.5v114q0 6 -4 172t-7.5 334t-3.5 187v24q-129 186 -342 187q-92 0 -160.5 -31t-108.5 -78t-64.5 -126t-34.5 -154.5t-15 -184.5z" />
<glyph unicode="e" horiz-adv-x="1097" d="M51 702q0 139 64 347q53 172 176 277.5t276 105.5q164 0 289 -123t186 -330q23 -74 23 -277q-35 -2 -89 -4t-202 -4q-49 -1 -89 -1q-81 0 -128 3q-18 1 -37 1q-151 0 -377 -42q8 -147 64.5 -280t109.5 -185q137 -133 227 -133h3q70 2 129 34t94 68t89 67.5t116 33.5v-28 v-46l2 -24q-47 -2 -88 -27.5t-73 -58.5t-103.5 -62.5t-169.5 -38.5q-13 -1 -25 -1q-99 0 -172 57q-82 64 -166 198q-129 205 -129 473zM141 733l54 17q20 6 149 16q108 8 161 9q11 0 19 -1q21 -1 82 -1h71q122 1 206 3q42 1 68 1t36 -1q-14 135 -65.5 258t-96.5 178 q-111 133 -254 134q-190 0 -317 -191q-107 -156 -113 -422z" />
<glyph unicode="f" horiz-adv-x="659" d="M61 965q49 33 117 36v136l2 98q2 10 5 28.5t18.5 64.5t39 81t69.5 63.5t103.5 28.5t111 -21.5t77.5 -41.5l25 -23l-47 -63q-4 8 -18.5 22.5t-56.5 33.5t-93 19q-57 0 -98.5 -55t-55.5 -109.5t-8 -56.5v-37q0 -84 2 -178q6 0 14 -4q49 -18 96.5 -18t92.5 18 q20 8 35.5 18.5t19.5 18.5l6 6l51 -59q-10 -10 -30.5 -24.5t-80.5 -34.5q-44 -15 -87 -15q-16 0 -33 2q-49 6 -82 12q8 -385 8 -450q-2 -33 -6 -273q-3 -159 -3 -212q0 -27 1 -27l-18 2h-37l-21 2l4 491q-2 16 -6 486h-16q-29 -2 -86 -47z" />
<glyph unicode="g" horiz-adv-x="1067" d="M53 1004q2 106 84 209.5t199 164.5q110 56 206 56h13q121 -6 200 -51.5t111 -102.5l2 160l19 -2h39l18 -2l-4 -430q0 -18 -3 -186.5t-7 -334.5t-4 -172v-63q-6 -115 -101 -196q-94 -79 -273 -79h-9q-55 0 -105.5 12.5t-88.5 34t-70.5 48t-56 56.5t-42 59.5t-31 57 t-19.5 48t-11 33.5l-4 12h10q10 2 24.5 3t28.5 1h25l10 2q-2 0 8 -29.5t34 -72.5t60.5 -86t98.5 -72q59 -27 129 -27h10q72 2 128 23.5t86 44t51.5 58.5t25.5 46.5t8 26.5v27q0 168 2 327q-107 -100 -298 -100h-15q-219 6 -355 161q-133 150 -133 325v10zM152 1004 q-2 -16 -2 -34q0 -27 5 -58q9 -50 36.5 -106t71.5 -101.5t117 -76t165 -32.5h19q78 0 135 15q65 16 93.5 41.5t45 51t18.5 44.5v18q0 190 4 223v43q2 43 2 80q-63 225 -299 231h-10q-148 0 -266 -111q-121 -116 -135 -228z" />
<glyph unicode="h" horiz-adv-x="968" d="M123 281q0 545 8 708q2 35 7 287q4 180 4 231q0 21 -1 21h19l37 -4h20l-6 -518q0 -55 -2 -115q92 151 303 151h8q254 -2 324 -225q20 -56 20 -106v-13h-2v-17q0 -46 -6 -188q-8 -178 -8 -180v-313h-12q-9 0 -24 -1h-10q-9 0 -16 1h-10v66q0 50 -1 126t-1 89q0 211 8 399 v28q0 18 -12 62.5t-34.5 78.5t-76 62.5t-127.5 30.5q-82 0 -145 -22.5t-99 -59.5t-53.5 -64.5t-27.5 -56.5q-2 -82 -4 -187.5t-4 -170t-2 -68.5v-313h-12q-9 0 -24 -1h-10q-9 0 -16 1h-10v66q0 50 -1 126t-1 89z" />
<glyph unicode="i" horiz-adv-x="337" d="M123 281q0 545 8 708q2 35 6 243q3 139 3 185q0 23 -1 23l19 -2h39l18 -2l-4 -430q0 -18 -3 -186.5t-7 -334.5t-4 -172v-313h-13q-9 0 -24 -1h-9q-9 0 -16 1h-10v66q0 50 -1 126t-1 89z" />
<glyph unicode="j" horiz-adv-x="382" d="M-307 -139l61 22q12 -25 32.5 -60.5t88.5 -101t139 -75.5q12 -2 24 -2q30 0 54 12q33 16 47.5 39.5t22.5 66.5t9 65.5t1 61.5v111h-2v66q0 49 -1 125.5t-1 89.5q0 545 8 708q2 35 6 243q3 139 3 185q0 23 -1 23l19 -2h39l18 -2l-4 -430q0 -18 -3 -186.5t-7 -334.5 t-4 -172v-313q0 -227 -11 -268q-8 -31 -34.5 -68t-72.5 -71q-35 -25 -87 -25q-15 0 -32 2q-73 10 -155 76q-111 88 -157 215z" />
<glyph unicode="k" horiz-adv-x="960" d="M123 281q0 545 8 708q2 35 6 243q3 139 3 185q0 23 -1 23l19 -2h39l18 -2l-4 -430q0 -70 -8 -443q133 63 178 100t479 574q2 -2 6 -4t14 -9l20 -14q8 -6 18 -12l16 -10l4 -2l-37 -43l-109 -131l-124 -148l2 -6q16 -76 43.5 -193.5t97.5 -346t121 -295.5l-101 -27 q-14 27 -26 58.5t-20.5 56t-21.5 71.5l-18 68q-6 21 -22 85t-23 85l-96 371q-152 -174 -168 -187q-35 -27 -235 -133q0 -37 -1 -76t-2 -59.5t-1 -22.5v-313h-13q-9 0 -24 -1t-25 1h-10v66q0 50 -1 126t-1 89z" />
<glyph unicode="l" horiz-adv-x="557" d="M123 281q0 545 8 708q2 35 6 243q3 139 3 185q0 23 -1 23l19 -2h39l18 -2l-4 -430q0 -18 -3 -186.5t-7 -334.5t-4 -172v-227q101 -3 148 -3q23 0 32 1h76h108h55l2 -23q4 -20 7 -41l2 -22l-430 2h-7h-20h-31h-14v66q0 50 -1 126t-1 89z" />
<glyph unicode="m" horiz-adv-x="1607" d="M123 281q0 545 8 708q2 35 6 243q3 139 3 185q0 23 -1 23l19 -2h39l18 -2q-2 -66 -2 -146q91 148 301 148h6q227 -2 309 -187q84 187 327 187h3q254 -2 324 -226q20 -56 20 -105v-13h-2v-88q0 -18 -3 -186.5t-7 -334.5t-4 -172v-313h-13q-9 0 -23 -1h-10q-9 0 -16 1h-10 v66q0 50 -1 126t-1 89q0 545 8 708q2 33 2 54.5t-2 31.5v28q0 18 -12 62.5t-34.5 78.5t-76 62.5t-127.5 30.5h-5q-223 0 -310 -174l8 -69h-2v-88q0 -18 -3 -186.5t-7 -334.5t-4 -172v-313h-13q-9 0 -23 -1h-10q-9 0 -16 1h-10v66q0 50 -1 126t-1 89q0 545 8 708q2 33 2 54.5 t-2 31.5v28q0 18 -12 62.5t-34.5 78.5t-76 62.5t-127.5 30.5h-5q-240 0 -316 -190q-2 -58 -2 -93.5t2 -47.5q0 -18 -3 -186.5t-7 -334.5t-4 -172v-313h-13q-9 0 -24 -1h-9q-9 0 -16 1h-10v66q0 50 -1 126t-1 89z" />
<glyph unicode="n" horiz-adv-x="1007" d="M123 281q0 545 8 708q2 35 6 243q3 139 3 185q0 23 -1 23l19 -2h39l18 -2q-2 -72 -4 -156q103 158 324 158h6q98 -2 171.5 -38t108.5 -86t56.5 -100.5t23.5 -85.5l4 -34h-2v-88q0 -18 -3 -186.5t-7 -334.5t-4 -172v-313h-13q-9 0 -23 -1h-10q-9 0 -16 1h-10v66 q0 50 -1 126t-1 89q0 545 8 708q2 33 2 54.5t-2 31.5q0 10 -2 27.5t-17.5 62.5t-41 79t-80.5 62.5t-129 30.5q-80 0 -143.5 -20.5t-103.5 -55t-61.5 -63.5t-33.5 -57q-2 -56 -2 -89.5t2 -45.5q0 -18 -3 -186.5t-7 -334.5t-4 -172v-313h-13q-9 0 -24 -1h-9q-9 0 -16 1h-10v66 q0 50 -1 126t-1 89z" />
<glyph unicode="o" horiz-adv-x="1175" d="M51 702q0 139 64 347q51 170 184 276.5t289 106.5q166 0 300 -125t195 -328q41 -133 41 -277q0 -117 -34.5 -248.5t-71.5 -185.5q-209 -293 -430 -293q-121 0 -226.5 68t-181.5 186q-129 205 -129 473zM141 700q0 -158 71 -325.5t130 -224.5q94 -92 250 -93 q186 0 318 188.5t132 454.5q0 141 -58 292t-118 220q-111 133 -274 134q-96 0 -186.5 -50.5t-151.5 -140.5q-113 -168 -113 -455z" />
<glyph unicode="p" horiz-adv-x="1005" d="M123 281q0 545 8 708q2 35 6 243q3 139 3 185q0 23 -1 23l19 -2h39l18 -2q-2 -35 -2 -78q92 106 326 106q211 -2 324 -124q110 -119 110 -312v-14q-4 -174 -136 -273.5t-372 -99.5q-174 0 -258 84q-2 -80 -4 -182.5t-4 -164t-2 -65.5v-313h-13q-8 0 -24 -1h-9q-9 0 -16 1 h-10v66q0 49 -1 125.5t-1 89.5zM209 846q25 -63 106.5 -93t149.5 -36h11q30 0 78 8q58 10 137 36.5t135.5 93.5t56.5 161v8q0 182 -96 267q-97 87 -250 93q-14 1 -27 1q-109 0 -186 -45q-86 -50 -113 -123v-211q0 -76 -2 -160z" />
<glyph unicode="q" horiz-adv-x="1175" d="M51 702q0 139 64 347q51 170 184 276.5t289 106.5q166 0 300 -125t195 -328q41 -133 41 -277q0 -117 -34.5 -248.5t-71.5 -185.5q-96 -133 -182 -200q90 -209 94 -209l-45 -29l-43 -23q4 4 -76 216q-90 -47 -178 -48q-121 0 -226.5 68t-181.5 186q-129 205 -129 473z M141 700q0 -158 71 -325.5t130 -224.5q94 -92 250 -93q76 0 145 35q-43 111 -51 119q-10 6 41 25l35 12l45 -113q106 84 170.5 234.5t64.5 330.5q0 141 -58 292t-118 220q-111 133 -274 134q-96 0 -186.5 -50.5t-151.5 -140.5q-113 -168 -113 -455z" />
<glyph unicode="r" horiz-adv-x="1028" d="M123 281q0 74 4 471h-2l2 16q0 193 4 221q8 147 8 428q-4 19 -2 21h2v2q2 -2 6 -2q37 4 92 7q41 2 108 2h49q102 -1 195 -21.5t182 -56.5t143.5 -110.5t54.5 -180.5q0 -288 -328 -347l152 -354q49 -115 82.5 -182.5t48 -89t36 -49t37.5 -54.5l-90 -6q-35 37 -71 96 q-27 39 -277 629q-63 -6 -118 -6q-104 0 -181 20l-53 6q-2 -82 -4 -188.5t-4 -171t-2 -68.5v-313h-12q-9 0 -24.5 -1t-25.5 1h-10v65q0 50 -1 126.5t-1 89.5zM209 831q152 -20 301 -20t262 62.5t115 179.5v6q0 140 -92 206q-94 66 -277 95q-120 18 -217 18q-47 0 -88 -4 q-4 -185 -4 -281q0 -64 2 -87q0 -84 -2 -175z" />
<glyph unicode="s" horiz-adv-x="921" d="M43 1149v17q0 84 36 147q40 70 105.5 104.5t126.5 49.5q54 14 101 14h12q53 -2 162.5 -14.5t191.5 -24.5l84 -10q-2 -6 -4 -14.5t-7 -27t-7 -30.5l-4 -10q2 2 -73 17t-180 23q-59 5 -118 5q-46 0 -92 -3q-105 -6 -176 -57q-67 -48 -66 -135v-10q4 -80 64.5 -158 t148.5 -140l187 -134q99 -72 181.5 -140.5t129.5 -160.5q35 -69 35 -142q0 -25 -4 -51q-20 -125 -107.5 -195.5t-197.5 -82.5q-74 -8 -147 -7q-35 0 -71 1q-108 6 -182 24l-72 19q6 84 11 83l16 -4l43 -12q29 -8 65.5 -15t90 -15.5t106.5 -14.5q16 -2 33 -1q70 0 143 27 q90 34 147 121q40 60 41 133q0 32 -8 66q-14 66 -95 143.5t-187 151.5l-209 147q-104 74 -177 158t-77 158z" />
<glyph unicode="t" horiz-adv-x="571" d="M102 1497h6q4 0 14.5 1t19 1t17.5 1t13 1h6q-2 0 -2 -47.5t2 -142.5l357 14l2 -80l-357 -10q4 -227 6 -246q9 -163 9 -708v-37q-6 -2 3 -58.5t43.5 -114t92.5 -57.5q53 0 94 17.5t55 34.5l17 18l51 -49q-8 -10 -25.5 -24.5t-74 -38t-113.5 -23.5q-156 0 -203 186l-12 80 q-2 78 -2 98q0 6 -4 172t-7.5 334t-3.5 187z" />
<glyph unicode="u" horiz-adv-x="1067" d="M109 1006q6 78 25.5 187.5t35.5 178.5l16 72h7q4 0 14 1t18 1t17.5 1t15.5 1h4q-2 0 -16.5 -79t-32.5 -192.5t-25 -187.5q-8 -87 -9 -191v-50q0 -70 2 -118q3 -63 8.5 -147t5.5 -92v-2q-2 -8 2 -36.5t22.5 -76t49 -90.5t94 -75.5t149.5 -34.5h18q87 0 154 35 q74 39 110.5 100t52 100t21.5 70q-12 516 -12 608v17l-4 430h6q4 0 14.5 1t18.5 1t17.5 1t13.5 1h6q-1 0 -1 -23q0 -46 3 -185q4 -208 6 -243q2 -33 8 -602v-106q0 -12 -1 -89t-1 -127v-65h-16h-37h-19v188q-116 -184 -337 -184h-21q-88 4 -157.5 30.5t-109.5 68.5t-67.5 85 t-38 89.5t-14.5 69t-4 36.5q-17 205 -17 404q0 110 5 219z" />
<glyph unicode="v" d="M20 1434h14q9 0 32.5 1t31.5 1h15q-1 -2 37 -182l80 -372q42 -192 51 -216q4 -8 219 -537l418 1305l86 -7l-453 -1425l-96 -4q-221 551 -246 635t-189 801z" />
<glyph unicode="w" horiz-adv-x="1607" d="M104 330h2v88q0 18 3.5 186t7.5 334t4 172v313h12q8 0 23.5 1t25.5 1l11 -2v-65q0 -49 1 -126t1 -89q0 -545 -9 -709q-2 -37 -2 -86h2v-28q0 -18 12.5 -62.5t35 -78.5t75.5 -62.5t127 -30.5h10q223 0 304 174q-6 70 -7 70h2v88q0 18 3.5 186t7.5 334t4 172v313h12 q8 0 23.5 1t25.5 1l10 -2v-65q0 -49 1.5 -126t1.5 -89q0 -545 -9 -709q-2 -37 -2 -86h2v-28q0 -18 12.5 -62.5t35 -78.5t75.5 -62.5t127 -30.5h14q69 0 124 17q60 20 96.5 53.5t55.5 61.5t32 58v142q0 18 3 186t7 334t4 172v313h13q9 0 23.5 1t25.5 1l10 -2v-65 q0 -49 1 -126t1 -89q0 -545 -8 -709q-3 -36 -7 -236q-3 -139 -3 -181q0 -19 1 -19l-18 2h-37l-20 2q0 57 2 131q-86 -147 -299 -147h-9q-227 2 -311 186q-18 -41 -46 -77t-103.5 -72.5t-177.5 -36.5q-254 2 -324 225q-21 58 -21 110v9z" />
<glyph unicode="x" horiz-adv-x="1030" d="M20 1313v41v28q14 0 53.5 -11t102 -44t124.5 -79t121.5 -128t92.5 -182q33 100 93.5 182t122 128t125 79t102.5 44t53 11q0 -6 -1 -27.5t-1 -41.5v-21h-4q-217 -43 -340 -211q-104 -145 -107 -362q0 -106 22.5 -196.5t58.5 -152t81 -109.5t89 -75.5t81 -46t61 -24.5 l23 -6q-2 -49 -2 -64q-33 0 -88.5 19.5t-127 60.5t-139 125t-102.5 194q-35 -111 -102.5 -194.5t-138 -124.5t-126 -60.5t-88.5 -19.5l-2 64q16 4 45 13t100.5 53t127 104.5t100.5 176.5q43 112 43 251v12q-2 137 -45 244.5t-99.5 165t-127 96.5t-109.5 51t-65 16h-4z" />
<glyph unicode="y" horiz-adv-x="868" d="M41 1169.5q0 24.5 3 145.5q3 119 5 119q1 0 4.5 -0.5t7 -0.5h9.5q18 1 38.5 0t20.5 -3v-5q-9 -89 -9 -166q0 -205 64 -321q56 -105 164 -105q8 0 17 1q233 16 313 149l-10 449q92 0 92 4t1 -98.5t2 -247.5l2 -295q1 -150 1 -262.5t-2 -131.5q0 -2 -2 -26.5t-3 -41 t-7.5 -49t-13.5 -56t-20 -56.5t-30.5 -57.5t-43.5 -50t-57.5 -42t-73.5 -27.5t-91 -11h-12q-111 0 -189 36q-82 39 -117.5 99.5t-49.5 108.5q-11 42 -11 78v11h86q0 -25 3 -48t19.5 -62t45 -66.5t88 -51t141.5 -26.5h8q65 0 113 31q51 33 78.5 92.5t44 127t19.5 146.5t3 135 t-4 111.5t-4 59.5q0 45 -2 90q-163 -113 -322 -113q-31 0 -63 5q-80 10 -137.5 72.5t-80 143t-30.5 131t-8 75z" />
<glyph unicode="z" horiz-adv-x="1032" d="M51 2v66q297 516 369 589q33 33 139 186l194 291q89 138 87 140h-11q-10 -2 -27.5 -4t-40 -4t-52 -4t-61.5 -4.5t-67.5 -4.5t-70.5 -2q-84 0 -181.5 3t-152.5 8l-55 4v90q0 -2 54 -7.5t151.5 -9.5t187.5 -4q215 2 436 25l2 -88q-342 -520 -424 -619q-16 -20 -46 -62 l-66 -95l-74 -110l-74 -113l-63 -98l-45 -69l-19 -26h31h81q48 0 97 -1t91 -1h53h17q88 0 198 18q120 21 192 41l74 21l-2 -90q2 -2 -61.5 -18.5t-183.5 -33t-234 -16.5z" />
<glyph unicode="|" horiz-adv-x="315" d="M115 281q0 545 8 708q2 35 6 243q3 139 3 185q0 23 -1 23l19 -2h38l19 -2l-4 -430q0 -18 -3 -186.5t-7.5 -334.5t-4.5 -172v-530h-12q-8 0 -24 -1h-9q-9 0 -16 1h-10v122q0 95 -1 231t-1 145z" />
<glyph unicode="&#xa1;" horiz-adv-x="333" d="M131 1075q0 -545 8 -708q2 -35 6 -243q3 -139 3 -185q0 -23 -1 -23l19 2h39l18 2l-4 430q0 18 -2 193.5t-5 350.5t-3 179zM133 1354l84 4l-4 -189q-18 2 -38 3t-38 -1z" />
<glyph unicode="&#xa7;" horiz-adv-x="1705" />
<glyph unicode="&#xa8;" horiz-adv-x="559" d="M63 1522l3 94l94 -4l4 -90h-101zM371 1522l8 96l92 4v-100h-100z" />
<glyph unicode="&#xaa;" d="M49 573q14 96 76.5 161t144.5 89.5t175.5 39t170 16.5t129 13t52.5 36q2 31 10 93q9 70 9 99q0 31 -16 70q-18 41 -59 67q-33 23 -103.5 35.5t-145.5 15.5q-55 2 -109 2h-36q-71 -1 -118 -3h-45q-2 0 0 11t6.5 28.5t4.5 25.5q-2 8 126 12q26 1 54 1q106 0 231 -13 q158 -18 219 -63q70 -49 85 -151q6 -46 6 -103q0 -72 -10 -165q-19 -165 -19 -208q0 -86 9 -251t17 -288l9 -120q-82 2 -82 6l-13 172q-25 -18 -66.5 -44t-144.5 -68q-93 -38 -163 -38h-13q-68 0 -138.5 25.5t-139 82t-100.5 163.5q-21 67 -21 147q0 50 8 104zM146 352 q40 -104 116 -170q72 -53 163 -53q25 0 52 4q123 19 227.5 65t112.5 68q3 6 3 40q0 39 -4 114q-7 141 -16.5 274t-11.5 131l-6 -2q-6 -2 -19 -5t-27.5 -6t-37.5 -7l-38 -7q-17 -3 -43.5 -8.5t-38.5 -7.5q-6 0 -71 -5t-103.5 -13t-97 -27.5t-98.5 -57.5t-58 -93 q-24 -68 -24 -129q0 -55 20 -105z" />
<glyph unicode="&#xad;" horiz-adv-x="677" d="M31 735q18 0 164.5 -3t291 -7t150.5 -4l2 -74q-440 0 -604 8z" />
<glyph unicode="&#xb2;" horiz-adv-x="796" d="M2 8l6 84q25 18 65 51t144.5 130.5t184 190.5t148 213t75.5 216q2 31 2 60q0 85 -17 155q-24 94 -66 144.5t-85 76t-84 27.5h-11q-43 0 -111 -14q-77 -15 -130 -31l-55 -17l-6 12l-10 21l-11 23q-4 8 -2 6l31 14q31 14 79 30.5t107 29.5q39 9 81 9q21 0 43 -2 q66 -7 125.5 -36t111 -102.5t79.5 -184.5q17 -74 17 -144q0 -44 -7 -86q-16 -110 -66 -212.5t-116.5 -191.5t-140.5 -160.5t-135.5 -124t-100.5 -80.5l-41 -27l670 2l-6 -90q-4 4 -385 6z" />
<glyph unicode="&#xb3;" horiz-adv-x="825" d="M43 113l4 18q4 16 6 33l4 18q207 -98 244 -104q16 -2 46 -3h13q28 0 70 3q53 4 101.5 26.5t91.5 59.5t63 108q13 44 13 97q0 34 -5 71q-25 193 -239 219q-28 3 -52.5 3t-46.5 -3v97h28q19 0 65.5 15t82 46t64.5 102.5t29 174.5q0 115 -55.5 176t-134.5 66q-25 2 -49 2 q-54 0 -108 -8q-77 -11 -133 -32l-55 -20q-27 59 -33 63q206 94 349 94q147 0 227 -100q37 -45 57 -110q23 -74 25 -143v-16q0 -58 -13 -102q-14 -49 -37.5 -92t-50 -70.5t-51 -47t-39.5 -29.5l-16 -8q10 0 28.5 -2t63.5 -17.5t81 -41t67.5 -82t35.5 -134.5q1 -19 1 -38 q0 -137 -65 -234q-75 -111 -178 -151q-76 -29 -150 -29q-28 0 -56 4q-39 6 -76 15t-65.5 20.5t-54 23.5t-43 22.5t-31 20.5t-17.5 15z" />
<glyph unicode="&#xb4;" horiz-adv-x="677" d="M135 1571q4 0 46 16.5t97.5 43t83.5 44.5q23 16 44.5 44t31.5 46l8 21l76 -55l-4 -9q-4 -8 -12 -21t-18.5 -28.5t-26 -32t-29.5 -26.5q-25 -16 -92.5 -44t-123.5 -48q-51 -19 -57 -19h-1l-11 33q-8 31 -12 35z" />
<glyph unicode="&#xb8;" horiz-adv-x="1323" d="M516 -401l4 18l12 37l9 18l20 -4q18 -2 44 -4t52.5 0t46 14.5t21.5 36.5v7q0 56 -79 56q-18 0 -40 -3l-16 -2l-41 49q27 201 29 201q84 0 84 -3l-25 -167q2 -2 20.5 0t47 -5.5t55 -19.5t42.5 -44q11 -23 11 -53q0 -11 -2 -24q-6 -43 -38 -69.5t-65.5 -36t-83.5 -10.5h-30 q-26 0 -37 1q-16 2 -39 7h-2z" />
<glyph unicode="&#xb9;" horiz-adv-x="499" d="M20 1319q0 -2 84 50l111 69v2l18 -2h37l21 -2l-4 -430q0 -18 -3 -186.5t-7.5 -334.5t-4.5 -172v-245h174l3 -60l-338 -16q-20 2 -37 2l6 69q55 2 121 3q0 45 -1 126.5t-1 88.5q0 545 8 708q0 10 2 70.5t4 143.5t2 136l-166 -92q-2 4 -5 12.5t-9 23.5t-10 26z" />
<glyph unicode="&#xba;" horiz-adv-x="1175" d="M51 702q0 139 64 347q51 170 184 276.5t289 106.5q166 0 300 -125t195 -328q41 -133 41 -277q0 -117 -34.5 -248.5t-71.5 -185.5q-209 -293 -430 -293q-121 0 -226.5 68t-181.5 186q-129 205 -129 473zM141 700q0 -158 71 -325.5t130 -224.5q94 -92 250 -93 q186 0 318 188.5t132 454.5q0 141 -58 292t-118 220q-111 133 -274 134q-96 0 -186.5 -50.5t-151.5 -140.5q-113 -168 -113 -455z" />
<glyph unicode="&#xbc;" horiz-adv-x="2260" d="M20 1319q0 -2 84 50l111 69v2l18 -2h37l21 -2l-4 -430q0 -18 -3 -186.5t-7.5 -334.5t-4.5 -172v-245h174l3 -60l-338 -16q-20 2 -37 2l6 69q55 2 121 3q0 45 -1 126.5t-1 88.5q0 545 8 708q0 10 2 70.5t4 143.5t2 136l-166 -92q-2 4 -5 12.5t-9 23.5t-10 26zM499 2 q2 6 201.5 319.5t212.5 344.5q8 23 87 215l150 372l74 183h24q21 0 46 -2h22q-307 -717 -332 -801q-10 -37 -107 -195l-190 -299l-92 -141q-86 0 -96 4zM1345 524l651 910v6l18 -2h39l19 -2v-4h4l-4 -9q-2 -31 -4 -210q-1 -89 -1 -141t1 -66q0 -57 -9 -431q240 -12 250 -18 l-6 -76q-125 12 -246 19q0 -43 -1 -89t-2 -71t-1 -27v-245h174l2 -60l-338 -16q-18 2 -36 2l6 69q55 2 121 3q0 45 -1 126.5t-1 88.5q0 109 2 223q-45 2 -79 2t-57 -2l-444 -49zM1439 528l99 16q61 9 206 24q127 12 215 12h23q4 389 6 409q0 10 1 63.5t3 131.5t2 129z" />
<glyph unicode="&#xbd;" horiz-adv-x="2112" d="M20 1319q0 -2 84 50l111 69v2l18 -2h37l21 -2l-4 -430q0 -18 -3 -186.5t-7.5 -334.5t-4.5 -172v-245h174l3 -60l-338 -16q-20 2 -37 2l6 69q55 2 121 3q0 45 -1 126.5t-1 88.5q0 545 8 708q0 10 2 70.5t4 143.5t2 136l-166 -92q-2 4 -5 12.5t-9 23.5t-10 26zM499 2 q2 6 201.5 319.5t212.5 344.5q8 23 87 215l150 372l74 183h24q21 0 46 -2h22q-307 -717 -332 -801q-10 -37 -107 -195l-190 -299l-92 -141q-86 0 -96 4zM1318 8l6 84q25 18 65 51t144.5 130.5t184 190.5t148 213t75.5 216q2 31 2 60q0 85 -17 155q-24 94 -66 144.5t-85 76 t-84 27.5h-11q-43 0 -111 -14q-77 -15 -130 -31l-55 -17l-6 12l-10 21l-11 23q-4 8 -2 6l31 14q31 14 79 30.5t107 29.5q39 9 81 9q21 0 43 -2q66 -7 125.5 -36t111 -102.5t79.5 -184.5q17 -74 17 -144q0 -44 -7 -86q-16 -110 -66 -212.5t-116.5 -191.5t-140.5 -160.5 t-135.5 -124t-100.5 -80.5l-41 -27l670 2l-6 -90q-4 4 -385 6z" />
<glyph unicode="&#xbe;" horiz-adv-x="2586" d="M43 113l4 18q4 16 6 33l4 18q207 -98 244 -104q16 -2 46 -3h13q28 0 70 3q53 4 101.5 26.5t91.5 59.5t63 108q13 44 13 97q0 34 -5 71q-25 193 -239 219q-28 3 -52.5 3t-46.5 -3v97h28q19 0 65.5 15t82 46t64.5 102.5t29 174.5q0 115 -55.5 176t-134.5 66q-25 2 -49 2 q-54 0 -108 -8q-77 -11 -133 -32l-55 -20q-27 59 -33 63q206 94 349 94q147 0 227 -100q37 -45 57 -110q23 -74 25 -143v-16q0 -58 -13 -102q-14 -49 -37.5 -92t-50 -70.5t-51 -47t-39.5 -29.5l-16 -8q10 0 28.5 -2t63.5 -17.5t81 -41t67.5 -82t35.5 -134.5q1 -19 1 -38 q0 -137 -65 -234q-75 -111 -178 -151q-76 -29 -150 -29q-28 0 -56 4q-39 6 -76 15t-65.5 20.5t-54 23.5t-43 22.5t-31 20.5t-17.5 15zM825 2q2 6 201.5 319.5t212.5 344.5q8 23 87 215l150 372l74 183h24q21 0 46 -2h22q-307 -717 -332 -801q-10 -37 -107 -195l-190 -299 l-92 -141q-86 0 -96 4zM1671 524l651 910v6l18 -2h39l19 -2v-4h4l-4 -9q-2 -31 -4 -210q-1 -89 -1 -141t1 -66q0 -57 -9 -431q240 -12 250 -18l-6 -76q-125 12 -246 19q0 -43 -1 -89t-2 -71t-1 -27v-245h174l2 -60l-338 -16q-18 2 -36 2l6 69q55 2 121 3q0 45 -1 126.5 t-1 88.5q0 109 2 223q-45 2 -79 2t-57 -2l-444 -49zM1765 528l99 16q61 9 206 24q127 12 215 12h23q4 389 6 409q0 10 1 63.5t3 131.5t2 129z" />
<glyph unicode="&#xbf;" horiz-adv-x="761" d="M6 303q31 266 350 375q111 39 207 45q-25 324 -28 324l83 2l29 -375q-12 -6 -111.5 -29.5t-188.5 -53.5t-172 -104.5t-93 -179.5q-3 -36 -3 -68q0 -65 13 -115q21 -75 69 -112t101 -53t125 -18h28q153 0 294 61q28 -78 30 -78l-10 -2q-8 -4 -27 -9l-42 -11 q-23 -6 -54 -12.5t-62.5 -11.5t-68.5 -9t-69 -6q-16 -1 -32 -1q-39 0 -76 4q-50 5 -113.5 29.5t-104.5 68.5t-65 132q-14 55 -14 122q0 41 5 85zM524 1327l84 -4l-4 -182q-2 2 -19.5 1t-35.5 -3h-21z" />
<glyph unicode="&#xc0;" horiz-adv-x="989" d="M43 4l27 115l72 300l87 367q-18 4 -24 9q-68 25 -146 118l43 48q25 -31 97 -74q25 -14 49 -25l65 270l52 224l18 69l113 5l493 -1426q-82 -12 -84 -12l-252 758q-45 -2 -83 -2t-70 2q-139 10 -191 18q-147 -629 -153 -651l-47 -117zM264 1751l76 55q33 -76 84 -110 q29 -20 84 -46t97 -42.5t46 -16.5q-4 -4 -12 -35l-10 -32q-2 -2 -58.5 18.5t-124 48t-92.5 43.5q-14 10 -29.5 26.5t-25.5 32.5l-18 29q-9 13 -13 21zM328 844q16 -2 49 -2q57 -6 252 -23q-178 537 -180 537q-4 0 -121 -512z" />
<glyph unicode="&#xc1;" horiz-adv-x="946" d="M27 4l65 -4q29 63 47 117q6 23 154 651q51 -8 190 -18q31 -2 69.5 -2t84.5 2l252 -758l84 12l-494 1426q-113 0 -112 -5l-19 -69l-52 -223l-65 -271q-25 10 -49 25q-33 18 -56.5 36.5t-31.5 26.5l-8 11l-43 -48q78 -94 145 -118q6 -4 25 -9l-55 -228l-50 -213l-42 -175 l-29 -121zM270 1587q4 0 46 16.5t97.5 43t84.5 45.5q23 16 44 43.5t31 46.5l9 20l75 -55l-4 -8q-4 -8 -12 -21.5t-18.5 -29t-25.5 -32t-30 -26.5q-25 -16 -92 -43.5t-123.5 -48t-58.5 -18.5l-10 32q-8 31 -13 35zM311 844q117 512 121 512q2 0 180 -537q-195 16 -252 23 q-33 0 -49 2z" />
<glyph unicode="&#xc2;" horiz-adv-x="946" d="M27 4l65 -4q29 63 47 117q6 23 154 651q51 -8 190 -18q31 -2 69.5 -2t84.5 2l252 -758l84 12l-494 1426q-113 0 -112 -5l-19 -69l-52 -223l-65 -271q-25 10 -49 25q-33 18 -56.5 36.5t-31.5 26.5l-8 11l-43 -48q78 -94 145 -118q6 -4 25 -9l-55 -228l-50 -213l-42 -175 l-29 -121zM209 1595q18 6 138 84t120 82q0 2 68 -40l137 -83l69 -43l-61 -59l-217 139l-184 -127q-57 41 -70 47zM311 844q117 512 121 512q2 0 180 -537q-195 16 -252 23q-33 0 -49 2z" />
<glyph unicode="&#xc3;" horiz-adv-x="946" d="M27 4l65 -4q29 63 47 117q6 23 154 651q51 -8 190 -18q31 -2 69.5 -2t84.5 2l252 -758l84 12l-494 1426q-113 0 -112 -5l-19 -69l-52 -223l-65 -271q-25 10 -49 25q-33 18 -56.5 36.5t-31.5 26.5l-8 11l-43 -48q78 -94 145 -118q6 -4 25 -9l-55 -228l-50 -213l-42 -175 l-29 -121zM215 1594v13v8v5v2l18 12q20 14 60.5 29.5t83.5 15.5q63 -2 117.5 -30.5t70.5 -32.5q20 -4 62.5 10t72.5 33l31 16v-84q-12 -6 -30.5 -17t-63.5 -27q-36 -12 -61 -12q-7 0 -13 1q-25 4 -78 33.5t-106 32.5q-43 0 -84 -15.5t-59 -32.5l-19 -16v2v7v11v11q0 6 -1 12 t-1 13zM311 844q117 512 121 512q2 0 180 -537q-195 16 -252 23q-33 0 -49 2z" />
<glyph unicode="&#xc4;" horiz-adv-x="946" d="M27 4l65 -4q29 63 47 117q6 23 154 651q51 -8 190 -18q31 -2 69.5 -2t84.5 2l252 -758l84 12l-494 1426q-113 0 -112 -5l-19 -69l-52 -223l-65 -271q-25 10 -49 25q-33 18 -56.5 36.5t-31.5 26.5l-8 11l-43 -48q78 -94 145 -118q6 -4 25 -9l-55 -228l-50 -213l-42 -175 l-29 -121zM227 1645l2 94l95 -4l4 -90h-101zM311 844q117 512 121 512q2 0 180 -537q-195 16 -252 23q-33 0 -49 2zM535 1645l8 96l92 4v-100h-100z" />
<glyph unicode="&#xc6;" horiz-adv-x="1548" d="M-100 2q-2 -2 118 204l285 484l-27 10q-68 25 -145 119l43 47q25 -31 96 -73q37 -23 74 -33l395 674q4 2 11 2v4l18 -2h39l18 -2h99q29 -2 221 -2h229q27 0 64 2t61 2l23 2l6 -80l-705 6q-4 -184 -4 -277q0 -62 2 -83q0 -76 -6 -287q52 3 83 3q16 0 26 -1q29 -2 165 -3 t158 -1q25 0 66 -1t63 -3h25l2 -68l-588 4q-8 -328 -8 -336v-247q12 0 55 2t62 0q29 -2 221 -2h229q27 0 64 2t61 2l23 2l6 -80l-774 6v2h-19v65q0 50 -1 126.5t-1 89.5q0 201 2 374q-44 -2 -85 -2t-79 2q-137 10 -188 19l-324 -539q-31 -47 -71 -137zM428 750q2 0 10 -1 t11 -1q195 -23 288 -25q0 233 4 266q0 8 1 55.5t3.5 117t2.5 120.5z" />
<glyph unicode="&#xc7;" horiz-adv-x="868" d="M41 705v15q0 209 109 397q112 196 282 259q100 37 210 51q97 13 154 13h15q59 -2 59 -6l-4 -72q-25 1 -49 1q-203 0 -364 -75q-139 -63 -224.5 -214.5t-93.5 -366.5v-22q0 -131 65 -268q70 -149 176.5 -245t203.5 -100q20 -1 39 -1q67 0 125 11q73 14 102 31l28 16 l19 -92q-92 -41 -254 -47l-21 -137q2 -2 20.5 0t47.5 -5.5t55.5 -19.5t42.5 -44q11 -23 11 -53q0 -11 -2 -24q-6 -43 -38 -69.5t-66 -36t-84 -10.5h-30q-25 0 -36 1q-17 2 -39 7h-2l6 18q4 18 12 37l6 18l19 -4q20 -2 45.5 -4t52.5 0t46.5 14.5t21.5 36.5v7q0 56 -79 56 q-18 0 -40 -3q-16 -2 -17 -2l-41 49q14 113 23 168q-119 14 -238.5 134t-195.5 281.5t-78 299.5z" />
<glyph unicode="&#xc8;" horiz-adv-x="866" d="M53 281q0 545 8 708q2 35 7 243q3 144 3 188q0 20 -1 20l18 -2h39l18 -2h99q29 -2 221 -2h229q27 0 64 2t61 2l23 2l6 -80l-705 4q-4 -183 -4 -275q0 -62 2 -83q0 -76 -6 -287q52 3 83 3q16 0 26 -1q29 -2 165 -3t158 -1q25 0 66 -1t63 -3h25l2 -68l-588 4 q-8 -328 -8 -336v-247q12 0 55 2t62 0q29 -2 221 -2h229q27 0 64 2t61 2l23 2l6 -80l-774 6v2h-19v66q0 49 -1 125.5t-1 89.5zM236 1741l75 55q33 -76 84 -110q29 -20 84.5 -46t97 -42.5t46.5 -16.5q-4 -4 -13 -37l-10 -31h-1q-6 0 -58 18q-56 21 -123.5 49t-91.5 44 q-14 10 -29.5 26.5t-26 32t-18.5 28.5t-12 22z" />
<glyph unicode="&#xc9;" horiz-adv-x="866" d="M53 281q0 545 8 708q2 35 7 243q3 144 3 188q0 20 -1 20l18 -2h39l18 -2h99q29 -2 221 -2h229q27 0 64 2t61 2l23 2l6 -80l-705 4q-4 -183 -4 -275q0 -62 2 -83q0 -76 -6 -287q52 3 83 3q16 0 26 -1q29 -2 165 -3t158 -1q25 0 66 -1t63 -3h25l2 -68l-588 4 q-8 -328 -8 -336v-247q12 0 55 2t62 0q29 -2 221 -2h229q27 0 64 2t61 2l23 2l6 -80l-774 6v2h-19v66q0 49 -1 125.5t-1 89.5zM242 1632q4 0 46 16.5t97 43t84 45.5q23 16 44.5 43.5t31.5 46.5l8 20l76 -55l-4 -8q-4 -8 -13 -22l-18 -28q-10 -16 -25.5 -32t-29.5 -27 q-25 -16 -92.5 -43.5t-124.5 -47.5q-51 -19 -57 -19h-1l-10 32q-8 31 -12 35z" />
<glyph unicode="&#xca;" horiz-adv-x="866" d="M53 281q0 545 8 708q2 35 7 243q3 144 3 188q0 20 -1 20l18 -2h39l18 -2h99q29 -2 221 -2h229q27 0 64 2t61 2l23 2l6 -80l-705 4q-4 -183 -4 -275q0 -62 2 -83q0 -76 -6 -287q52 3 83 3q16 0 26 -1q29 -2 165 -3t158 -1q25 0 66 -1t63 -3h25l2 -68l-588 4 q-8 -328 -8 -336v-247q12 0 55 2t62 0q29 -2 221 -2h229q27 0 64 2t61 2l23 2l6 -80l-774 6v2h-19v66q0 49 -1 125.5t-1 89.5zM170 1595q18 6 138 84t120 82q0 2 68 -40l139 -83l67 -43l-61 -59l-217 139l-184 -127q-57 41 -70 47z" />
<glyph unicode="&#xcb;" horiz-adv-x="866" d="M53 281q0 545 8 708q2 35 7 243q3 144 3 188q0 20 -1 20l18 -2h39l18 -2h99q29 -2 221 -2h229q27 0 64 2t61 2l23 2l6 -80l-705 4q-4 -183 -4 -275q0 -62 2 -83q0 -76 -6 -287q52 3 83 3q16 0 26 -1q29 -2 165 -3t158 -1q25 0 66 -1t63 -3h25l2 -68l-588 4 q-8 -328 -8 -336v-247q12 0 55 2t62 0q29 -2 221 -2h229q27 0 64 2t61 2l23 2l6 -80l-774 6v2h-19v66q0 49 -1 125.5t-1 89.5zM229 1624l2 94l95 -4l4 -90h-101zM537 1624l8 96l92 4v-100h-100z" />
<glyph unicode="&#xcc;" horiz-adv-x="434" d="M20 1745l76 55q33 -76 84 -110q29 -20 84 -46t97 -42.5t47 -16.5q-4 -4 -15 -37l-8 -30q-2 -2 -58.5 18t-124 48t-91.5 44q-14 10 -29.5 26.5t-26 32t-18.5 29t-12 21.5zM41 1382l2 60q0 2 37 2t91 -1l109 -2q54 -1 93 -3h37q4 -70 6 -70q-6 0 -37 -2q-4 -1 -19 -1 q-29 0 -102 3q-4 -184 -4 -278q0 -62 2 -84q0 -18 -3 -186.5t-7 -334.5t-4 -172v-245h174l2 -60l-338 -16q-18 2 -37 2l6 69q55 2 121 3q0 45 -1 126.5t-1 88.5q0 545 8 708q2 23 8 383z" />
<glyph unicode="&#xcd;" horiz-adv-x="434" d="M41 1382l2 60q0 2 37 2t91 -1l109 -2q54 -1 93 -3h37q4 -70 6 -70q-6 0 -37 -2q-4 -1 -19 -1q-29 0 -102 3q-4 -184 -4 -278q0 -62 2 -84q0 -18 -3 -186.5t-7 -334.5t-4 -172v-245h174l2 -60l-338 -16q-18 2 -37 2l6 69q55 2 121 3q0 45 -1 126.5t-1 88.5q0 545 8 708 q2 23 8 383zM59 1618q4 0 46 16.5t97.5 43t84.5 44.5q23 16 44 44t29 49l11 18l75 -55l-4 -9q-4 -8 -12 -21t-18.5 -28.5t-25.5 -32t-30 -26.5q-25 -16 -92 -44t-124 -48q-51 -19 -57 -19h-1l-8 31q-10 33 -15 37z" />
<glyph unicode="&#xce;" horiz-adv-x="438" d="M-43 1595q16 8 135 85t119 81q0 2 69 -40l138 -83l67 -43l-61 -59l-217 139l-184 -127q-53 41 -66 47zM41 1382l2 60q0 2 37 2t91 -1l109 -2q54 -1 93 -3h37q4 -70 6 -70q-6 0 -37 -2q-4 -1 -19 -1q-29 0 -102 3q-4 -184 -4 -278q0 -62 2 -84q0 -18 -3 -186.5t-7 -334.5 t-4 -172v-245h174l2 -60l-338 -16q-18 2 -37 2l6 69q55 2 121 3q0 45 -1 126.5t-1 88.5q0 545 8 708q2 23 8 383z" />
<glyph unicode="&#xcf;" horiz-adv-x="434" d="M14 1563l2 94l95 -4l4 -90h-101zM41 1382l2 60q0 2 37 2t91 -1l109 -2q54 -1 93 -3h37q4 -70 6 -70q-6 0 -37 -2q-4 -1 -19 -1q-29 0 -102 3q-4 -184 -4 -278q0 -62 2 -84q0 -18 -3 -186.5t-7 -334.5t-4 -172v-245h174l2 -60l-338 -16q-18 2 -37 2l6 69q55 2 121 3 q0 45 -1 126.5t-1 88.5q0 545 8 708q2 23 8 383zM322 1563l8 96l92 4v-100h-100z" />
<glyph unicode="&#xd1;" horiz-adv-x="1038" d="M123 281q0 545 8 708q2 35 6 243q3 139 3 185q0 23 -1 23l19 -2h39l18 -2v-4l16 -2l611 -1258q4 430 4 576q0 33 -5 253t-7 240q-2 8 -3.5 31.5t-1.5 50.5t-1 52.5t-1 41.5v15l21 2l41 4l22 4q-1 -51 -1 -89q0 -75 3 -100v-1253h-18h-35l-18 2l-629 1288q-3 -169 -3 -239 q0 -35 1 -45q0 -18 -3 -186.5t-7 -334.5t-4 -172v-313h-13q-8 0 -24 -1h-9q-9 0 -16 1h-10v66q0 49 -1 125.5t-1 89.5zM260 1595v12v8v5v2l19 12q20 14 60 29.5t83 15.5q63 -2 117.5 -30.5t70.5 -32.5q20 -4 62.5 10t72.5 33l31 16v-84q-12 -6 -30.5 -17t-63.5 -27 q-36 -12 -61 -12q-7 0 -13 1q-25 4 -78 33.5t-106 32.5q-43 0 -84 -15.5t-59 -32.5l-19 -16v2v7v11v11q0 6 -1 12t-1 14z" />
<glyph unicode="&#xd2;" horiz-adv-x="1214" d="M55 702q0 139 64 347q37 121 119 213q150 170 354.5 170t359.5 -189q45 39 82 53q104 38 179 38q14 0 26 -1v-88q-13 1 -26 1q-115 0 -187 -50l-27 -20q53 -86 88 -197q41 -133 41 -277q0 -117 -34.5 -248.5t-71.5 -185.5q-209 -293 -430 -293q-121 0 -226.5 68 t-181.5 186q-129 205 -129 473zM145 700q0 -158 71 -325.5t130 -224.5q94 -92 250 -93q186 0 318.5 188.5t132.5 454.5q0 195 -115 416q-239 -200 -471 -200q-33 0 -66 4q-162 18 -186 141q-64 -154 -64 -361zM238 1262q10 -1 10 -11zM279 1131v-15q0 -28 10 -51 q14 -29 64 -51q46 -19 120 -19h14q88 2 170 36t127 66.5t105 88.5l-19 26q-110 134 -274 134q-172 0 -297 -138q-4 -8 -10 -23.5t-10 -53.5zM410 1745l75 55q33 -76 84 -110q29 -20 84.5 -46t97.5 -42.5t46 -16.5q-4 -4 -15 -37l-8 -30h-1q-6 0 -58 18q-56 20 -123.5 48 t-91.5 44q-14 10 -29.5 26.5t-26 32t-18.5 29t-12 21.5z" />
<glyph unicode="&#xd3;" horiz-adv-x="1214" d="M55 702q0 139 64 347q37 121 119 213q150 170 354.5 170t359.5 -189q45 39 82 53q104 38 179 38q14 0 26 -1v-88q-13 1 -26 1q-115 0 -187 -50l-27 -20q53 -86 88 -197q41 -133 41 -277q0 -117 -34.5 -248.5t-71.5 -185.5q-209 -293 -430 -293q-121 0 -226.5 68 t-181.5 186q-129 205 -129 473zM145 700q0 -158 71 -325.5t130 -224.5q94 -92 250 -93q186 0 318.5 188.5t132.5 454.5q0 195 -115 416q-239 -200 -471 -200q-33 0 -66 4q-162 18 -186 141q-64 -154 -64 -361zM238 1262l10 -11zM279 1131v-15q0 -28 10 -51q14 -29 64 -51 q46 -19 120 -19h14q88 2 170 36t127 66.5t105 88.5l-19 26q-110 134 -274 134q-172 0 -297 -138q-4 -8 -10 -23.5t-10 -53.5zM416 1608q4 0 46 16t97 43t84 45q23 16 44.5 44t29.5 46l10 21l76 -56l-4 -8q-4 -8 -13 -22l-18 -28q-10 -15 -25.5 -31.5t-29.5 -26.5 q-25 -16 -92.5 -44t-124.5 -49q-51 -18 -57 -18h-1l-8 33q-10 31 -14 35z" />
<glyph unicode="&#xd4;" horiz-adv-x="1183" d="M51 702q0 139 64 347q36 121 118 213q150 170 355 170t360 -189q45 39 82 53q104 38 179 38q14 0 26 -1v-88q-13 1 -26 1q-115 0 -187 -50l-27 -20q53 -86 88 -197q41 -133 41 -277q0 -117 -34.5 -248.5t-71.5 -185.5q-209 -293 -430 -293q-121 0 -226.5 68t-181.5 186 q-129 205 -129 473zM141 700q0 -158 71 -325.5t130 -224.5q94 -92 250 -93q186 0 318 188.5t132 454.5q0 195 -114 416q-239 -200 -471 -200q-33 0 -66 4q-162 18 -186 141q-64 -154 -64 -361zM233 1262l11 -11zM275 1131v-15q0 -28 10 -51q14 -29 64 -51q46 -19 120 -19h14 q88 2 170 36t127 66.5t105 88.5l-19 26q-110 134 -274 134q-172 0 -297 -138q-4 -8 -10 -23.5t-10 -53.5zM326 1595q18 6 138 84t120 82q0 2 68 -40l139 -83l67 -43l-61 -59l-217 139l-185 -127q-57 41 -69 47z" />
<glyph unicode="&#xd5;" horiz-adv-x="1183" d="M51 702q0 139 64 347q36 121 118 213q150 170 355 170t360 -189q45 39 82 53q104 38 179 38q14 0 26 -1v-88q-13 1 -26 1q-115 0 -187 -50l-27 -20q53 -86 88 -197q41 -133 41 -277q0 -117 -34.5 -248.5t-71.5 -185.5q-209 -293 -430 -293q-121 0 -226.5 68t-181.5 186 q-129 205 -129 473zM141 700q0 -158 71 -325.5t130 -224.5q94 -92 250 -93q186 0 318 188.5t132 454.5q0 195 -114 416q-239 -200 -471 -200q-33 0 -66 4q-162 18 -186 141q-64 -154 -64 -361zM233 1262l11 -11zM275 1131v-15q0 -28 10 -51q14 -29 64 -51q46 -19 120 -19h14 q88 2 170 36t127 66.5t105 88.5l-19 26q-110 134 -274 134q-172 0 -297 -138q-4 -8 -10 -23.5t-10 -53.5zM334 1594v13v8v5v2l18 12q20 14 60.5 29.5t83.5 15.5q63 -2 117.5 -30.5t70.5 -32.5q20 -4 62 10t73 33l31 16v-84q-12 -6 -30.5 -17t-63.5 -27q-36 -12 -61 -12 q-7 0 -13 1q-25 4 -78 33.5t-106 32.5q-43 0 -84 -15.5t-60 -32.5l-18 -16v2v7v10v12q0 6 -1 12t-1 13z" />
<glyph unicode="&#xd6;" horiz-adv-x="1214" d="M55 702q0 139 64 347q37 121 119 213q150 170 354.5 170t359.5 -189q45 39 82 53q104 38 179 38q14 0 26 -1v-88q-13 1 -26 1q-115 0 -187 -50l-27 -20q53 -86 88 -197q41 -133 41 -277q0 -117 -34.5 -248.5t-71.5 -185.5q-209 -293 -430 -293q-121 0 -226.5 68 t-181.5 186q-129 205 -129 473zM145 700q0 -158 71 -325.5t130 -224.5q94 -92 250 -93q186 0 318.5 188.5t132.5 454.5q0 195 -115 416q-239 -200 -471 -200q-33 0 -66 4q-162 18 -186 141q-64 -154 -64 -361zM238 1262l10 -11zM279 1131v-15q0 -28 10 -51q14 -29 64 -51 q46 -19 120 -19h14q88 2 170 36t127 66.5t105 88.5l-19 26q-110 134 -274 134q-172 0 -297 -138q-4 -8 -10 -23.5t-10 -53.5zM403 1513l3 95l94 -4l4 -91h-101zM711 1513l8 97l92 4v-101h-100z" />
<glyph unicode="&#xd7;" horiz-adv-x="548" d="M23 506l186 178q-150 154 -178 186l53 60q23 -18 182 -191l197 187l53 -52l-197 -190l83 -88l72 -76q24 -26 28 -28l-49 -56l-189 193l-182 -176z" />
<glyph unicode="&#xd8;" horiz-adv-x="1183" d="M51 702q0 139 64 347q36 121 118 213q150 170 355 170t360 -189q45 39 82 53q104 38 179 38q14 0 26 -1v-88q-13 1 -26 1q-115 0 -187 -50l-27 -20q53 -86 88 -197q41 -133 41 -277q0 -117 -34.5 -248.5t-71.5 -185.5q-209 -293 -430 -293q-143 0 -264 93l-45 -70 q-86 0 -97 4l76 125q-49 53 -78 102q-129 205 -129 473zM141 700q0 -133 50.5 -273t111.5 -230q270 416 293 469q23 57 156 325q-140 -76 -285 -76q-38 0 -76 5q-162 18 -186 141q-64 -154 -64 -361zM233 1262l11 -11zM275 1131v-15q0 -28 10 -51q14 -29 64 -51 q46 -19 120 -19h14q88 2 170 36t127 66.5t105 88.5l-19 26q-110 134 -274 134q-172 0 -297 -138q-4 -8 -10 -23.5t-10 -53.5zM365 129q92 -72 227 -72q186 0 318 188.5t132 454.5q0 195 -114 416l-41 -33q-199 -378 -219 -450q-23 -70 -303 -504z" />
<glyph unicode="&#xd9;" horiz-adv-x="1075" d="M139 1436h7q4 0 14 1t18 1t17.5 1t13.5 1h6q-1 0 -1 -23q0 -46 3 -185q4 -208 6 -243q10 -169 10 -363q0 -121 -4 -253q2 -25 8.5 -54.5t28 -73.5t54 -79t92 -61.5t135.5 -28.5h18q87 0 154 35q74 39 110.5 100t52 100t21.5 70q-12 516 -12 608v17l-4 430h6q4 0 14.5 1 t18.5 1t17 1t15 1h5q-1 0 -1 -23q0 -46 3 -185q4 -208 6 -243q2 -33 8 -602v-106q0 -12 -1 -89t-1 -126v-66h-19h-34h-19v188q-116 -184 -337 -184h-21q-109 4 -188.5 46t-116.5 92.5t-58.5 112.5t-24.5 90t-3 42l-13 619zM340 1745l76 55q33 -76 84 -110q29 -20 84 -46 t97 -42.5t46 -16.5q-4 -4 -14 -37l-8 -30h-1q-6 0 -57 18q-57 20 -124.5 48t-92.5 44q-14 10 -29.5 26.5t-25.5 32.5l-18 29q-9 13 -13 21z" />
<glyph unicode="&#xda;" horiz-adv-x="1075" d="M139 1436l4 -430l13 -619q0 -14 3 -42t24.5 -90t58.5 -112.5t116.5 -92.5t188.5 -46h19q224 0 339 184v-188h13q8 0 23 -1h10q9 0 16 1h10v66q0 49 1 125.5t1 89.5q0 545 -8 708q-2 35 -6 243q-3 139 -3 185q0 23 1 23l-19 -2h-39l-18 -2l4 -430v-17q0 -92 12 -608 q-6 -31 -21.5 -70t-52 -100t-110.5 -100q-67 -35 -154 -35h-18q-76 2 -135.5 28.5t-92 61.5t-54 79t-28 73.5t-8.5 54.5q4 132 4 253q0 194 -10 363q-2 35 -6 243q-3 139 -3 185q0 23 1 23l-18 -2h-37zM346 1608q4 0 46 16t97.5 43t83.5 45q23 16 44.5 44t29.5 46l10 21 l76 -56l-4 -8q-4 -8 -12 -21.5t-18.5 -28.5t-26 -31.5t-29.5 -26.5q-25 -16 -92.5 -44t-123.5 -48q-51 -19 -57 -19h-1l-9 33q-10 31 -14 35z" />
<glyph unicode="&#xdb;" horiz-adv-x="1064" d="M102 1436l4 -430l13 -619q0 -14 3 -42t24.5 -90t58.5 -112.5t116.5 -92.5t188.5 -46h19q224 0 339 184v-188h13q8 0 24 -1h9q9 0 16 1h10v66q0 49 1 125.5t1 89.5v106q-6 569 -8 602q-2 35 -6 243q-3 139 -3 185q0 23 1 23l-19 -2h-39l-18 -2l4 -430v-17q0 -92 12 -608 q-6 -31 -21.5 -70t-52 -100t-110.5 -100q-67 -35 -154 -35h-18q-76 2 -135.5 28.5t-92 61.5t-54 79t-27.5 73.5t-8 54.5q4 127 4 244q0 199 -11 372q-2 35 -6 243q-3 139 -3 185q0 23 1 23l-18 -2h-37zM266 1595q18 6 138 84t120 82q0 2 69 -40l136 -83l70 -43l-62 -59 l-217 139l-184 -127q-57 41 -70 47z" />
<glyph unicode="&#xdc;" horiz-adv-x="1075" d="M139 1436l4 -430l13 -619q0 -14 3 -42t24.5 -90t58.5 -112.5t116.5 -92.5t188.5 -46h19q224 0 339 184v-188h13q8 0 23 -1h10q9 0 16 1h10v66q0 49 1 125.5t1 89.5v106q-6 569 -8 602q-2 35 -6 243q-3 139 -3 185q0 23 1 23l-19 -2h-39l-18 -2l4 -430v-17q0 -92 12 -608 q-6 -31 -21.5 -70t-52 -100t-110.5 -100q-67 -35 -154 -35h-18q-76 2 -135.5 28.5t-92 61.5t-54 79t-28 73.5t-8.5 54.5q4 132 4 253q0 194 -10 363q-2 35 -6 243q-3 139 -3 185q0 23 1 23l-18 -2h-37zM334 1602l2 94l94 -4l4 -90h-100zM641 1602l8 96l92 4v-100h-100z" />
<glyph unicode="&#xdd;" horiz-adv-x="946" d="M49 1430l41 -80l87 -166q44 -86 50 -101q12 -35 244 -436q-6 -119 -6 -360q0 -12 1 -89t1 -126v-66h16h37h19v313q0 23 3 87.5t6 150.5t5 127l61 141q8 20 140.5 313.5t134.5 293.5l-23 2q-23 0 -47 2l-24 2q0 2 -37 -89.5t-45 -113.5l-209 -463l-211 379l-152 281 q-2 2 -47 1t-45 -3zM283 1608q4 0 46 16t97 43t84 45q23 16 44 44t32 46l8 21l76 -56l-4 -8q-4 -8 -12 -21l-19 -29q-10 -15 -25.5 -31.5t-29.5 -26.5q-25 -16 -92.5 -44t-123.5 -48q-52 -19 -58 -19h-1l-10 33q-8 31 -12 35z" />
<glyph unicode="&#xe0;" d="M49 573q14 96 76.5 161t144.5 89.5t175.5 39t170 16.5t129 13t52.5 36q2 31 10 93q9 70 9 99q0 31 -17 70q-17 41 -58 67q-33 23 -103.5 35.5t-145.5 15.5q-55 2 -109 2h-36q-71 -1 -118 -3h-45q-2 0 0 11t6.5 28.5t4.5 25.5q-2 8 126 13h54q106 0 231 -13 q158 -18 219 -63q70 -49 85 -151q6 -46 6 -103q0 -72 -10 -165q-19 -165 -19 -208q0 -86 9 -251t17 -288l9 -120q-82 2 -82 6l-13 172q-25 -18 -66.5 -44t-144.5 -68q-93 -38 -163 -38h-13q-68 0 -138.5 25.5t-139 82t-100.5 164.5q-21 66 -21 146q0 50 8 104zM145 352 q41 -104 117 -170q72 -53 163 -53q25 0 52 4q123 19 227.5 65t112.5 68q3 6 3 40q0 39 -4 115q-7 140 -16.5 273t-11.5 131l-6 -2q-6 -2 -19 -5t-27.5 -6t-37.5 -7l-39 -7q-16 -3 -42.5 -8.5t-38.5 -7.5q-6 0 -71 -5t-103.5 -13t-97 -27.5t-98.5 -57.5t-58 -93 q-24 -68 -24 -129q0 -55 19 -105zM319 1731l76 55q33 -76 84 -111q29 -20 84 -45.5t97 -42t47 -16.5q-4 -4 -15 -35l-8 -33h-1q-6 0 -58 18l-123.5 48.5t-91.5 44.5q-14 10 -29.5 26.5t-26 32t-18.5 28.5t-12 21z" />
<glyph unicode="&#xe1;" d="M49 573q14 96 76.5 161t144.5 89.5t175.5 39t170 16.5t129 13t52.5 36q2 31 10 93q9 70 9 99q0 31 -17 70q-17 41 -58 67q-33 23 -103.5 35.5t-145.5 15.5q-55 2 -109 2h-36q-71 -1 -118 -3h-45q-2 0 0 11t6.5 28.5t4.5 25.5q-2 8 126 13h54q106 0 231 -13 q158 -18 219 -63q70 -49 85 -151q6 -46 6 -103q0 -72 -10 -165q-19 -165 -19 -208q0 -86 9 -251t17 -288l9 -120q-82 2 -82 6l-13 172q-25 -18 -66.5 -44t-144.5 -68q-93 -38 -163 -38h-13q-68 0 -138.5 25.5t-139 82t-100.5 164.5q-21 66 -21 146q0 50 8 104zM145 352 q41 -104 117 -170q72 -53 163 -53q25 0 52 4q123 19 227.5 65t112.5 68q3 6 3 40q0 39 -4 115q-7 140 -16.5 273t-11.5 131l-6 -2q-6 -2 -19 -5t-27.5 -6t-37.5 -7l-39 -7q-16 -3 -42.5 -8.5t-38.5 -7.5q-6 0 -71 -5t-103.5 -13t-97 -27.5t-98.5 -57.5t-58 -93 q-24 -68 -24 -129q0 -55 19 -105zM324 1571q4 0 46 16.5t97 43t84 44.5q23 16 44 44t32 46l8 21l76 -55l-4 -9q-4 -8 -13 -21l-18 -29q-10 -15 -25.5 -31.5t-29.5 -26.5q-25 -16 -92.5 -44t-124.5 -49q-51 -18 -57 -18h-1l-10 33q-8 31 -12 35z" />
<glyph unicode="&#xe2;" d="M49 573q14 96 76.5 161t144.5 89.5t175.5 39t170 16.5t129 13t52.5 36q2 31 10 93q9 70 9 99q0 31 -17 70q-17 41 -58 67q-33 23 -103.5 35.5t-145.5 15.5q-55 2 -109 2h-36q-71 -1 -118 -3h-45q-2 0 0 11t6.5 28.5t4.5 25.5q-2 8 126 13h54q106 0 231 -13 q158 -18 219 -63q70 -49 85 -151q6 -46 6 -103q0 -72 -10 -165q-19 -165 -19 -208q0 -86 9 -251t17 -288l9 -120q-82 2 -82 6l-13 172q-25 -18 -66.5 -44t-144.5 -68q-93 -38 -163 -38h-13q-68 0 -138.5 25.5t-139 82t-100.5 164.5q-21 66 -21 146q0 50 8 104zM145 352 q41 -104 117 -170q72 -53 163 -53q25 0 52 4q123 19 227.5 65t112.5 68q3 6 3 40q0 39 -4 115q-7 140 -16.5 273t-11.5 131l-6 -2q-6 -2 -19 -5t-27.5 -6t-37.5 -7l-39 -7q-16 -3 -42.5 -8.5t-38.5 -7.5q-6 0 -71 -5t-103.5 -13t-97 -27.5t-98.5 -57.5t-58 -93 q-24 -68 -24 -129q0 -55 19 -105zM248 1583q18 6 138 84t120 82q0 2 68 -40l139 -83l67 -43l-61 -59l-217 139l-185 -127q-57 41 -69 47z" />
<glyph unicode="&#xe3;" d="M49 573q14 96 76.5 161t144.5 89.5t175.5 39t170 16.5t129 13t52.5 36q2 31 10 93q9 70 9 99q0 31 -17 70q-17 41 -58 67q-33 23 -103.5 35.5t-145.5 15.5q-55 2 -109 2h-36q-71 -1 -118 -3h-45q-2 0 0 11t6.5 28.5t4.5 25.5q-2 8 126 13h54q106 0 231 -13 q158 -18 219 -63q70 -49 85 -151q6 -46 6 -103q0 -72 -10 -165q-19 -165 -19 -208q0 -86 9 -251t17 -288l9 -120q-82 2 -82 6l-13 172q-25 -18 -66.5 -44t-144.5 -68q-93 -38 -163 -38h-13q-68 0 -138.5 25.5t-139 82t-100.5 164.5q-21 66 -21 146q0 50 8 104zM145 352 q41 -104 117 -170q72 -53 163 -53q25 0 52 4q123 19 227.5 65t112.5 68q3 6 3 40q0 39 -4 115q-7 140 -16.5 273t-11.5 131l-6 -2q-6 -2 -19 -5t-27.5 -6t-37.5 -7l-39 -7q-16 -3 -42.5 -8.5t-38.5 -7.5q-6 0 -71 -5t-103.5 -13t-97 -27.5t-98.5 -57.5t-58 -93 q-24 -68 -24 -129q0 -55 19 -105zM297 1596v13v8v5v2l18 14q20 12 60.5 27.5t83.5 15.5q63 -2 117.5 -30.5t70.5 -32.5q20 -4 62.5 10t72.5 31l31 18v-84q-12 -6 -30.5 -17t-63.5 -27q-36 -12 -61 -12q-7 0 -13 1q-25 4 -78 34t-106 32q-43 0 -84 -15.5t-60 -32.5l-18 -16v2 v7v10v12q0 6 -1 12t-1 13z" />
<glyph unicode="&#xe4;" d="M49 573q14 96 76.5 161t144.5 89.5t175.5 39t170 16.5t129 13t52.5 36q2 31 10 93q9 70 9 99q0 31 -17 70q-17 41 -58 67q-33 23 -103.5 35.5t-145.5 15.5q-55 2 -109 2h-36q-71 -1 -118 -3h-45q-2 0 0 11t6.5 28.5t4.5 25.5q-2 8 126 13h54q106 0 231 -13 q158 -18 219 -63q70 -49 85 -151q6 -46 6 -103q0 -72 -10 -165q-19 -165 -19 -208q0 -86 9 -251t17 -288l9 -120q-82 2 -82 6l-13 172q-25 -18 -66.5 -44t-144.5 -68q-93 -38 -163 -38h-13q-68 0 -138.5 25.5t-139 82t-100.5 164.5q-21 66 -21 146q0 50 8 104zM145 352 q41 -104 117 -170q72 -53 163 -53q25 0 52 4q123 19 227.5 65t112.5 68q3 6 3 40q0 39 -4 115q-7 140 -16.5 273t-11.5 131l-6 -2q-6 -2 -19 -5t-27.5 -6t-37.5 -7l-39 -7q-16 -3 -42.5 -8.5t-38.5 -7.5q-6 0 -71 -5t-103.5 -13t-97 -27.5t-98.5 -57.5t-58 -93 q-24 -68 -24 -129q0 -55 19 -105zM338 1522l2 94l94 -4l4 -90h-100zM645 1522l8 96l92 4v-100h-100z" />
<glyph unicode="&#xe6;" horiz-adv-x="1779" d="M8 573q14 96 76.5 161t144.5 89.5t175.5 39t170 16.5t129 13t52.5 36q2 31 10 93q9 70 9 99q0 31 -17 70q-17 41 -58 67q-33 23 -103.5 35.5t-145.5 15.5q-55 2 -109 2h-36q-70 -1 -118 -3h-45q-2 0 0 11t6.5 28.5t4.5 25.5q-2 8 126 12q26 1 54 1q106 0 231 -14 q158 -17 219 -62q66 -45 82 -160q66 131 175.5 207t238.5 76q164 0 289 -123t186 -330q23 -74 23 -277q-35 -2 -89.5 -4t-202.5 -4q-49 -1 -89 -1q-81 0 -127 3q-20 1 -41 1q-162 0 -373 -42q8 -147 64.5 -280t109.5 -185q137 -133 227 -133h3q70 2 129 34t94 68t89 67.5 t116 33.5v-28v-46l2 -24q-47 -2 -88 -27.5t-73 -58.5t-103.5 -62.5t-170.5 -38.5q-13 -1 -25 -1q-99 0 -171 58q-82 64 -166 197l-31 52l19 -258q-82 2 -82 6l-13 172q-25 -18 -66.5 -44t-143.5 -68q-94 -38 -164 -38h-13q-68 0 -138.5 25.5t-139 82t-101.5 164.5 q-20 66 -20 146q0 50 8 104zM104 352q41 -104 117 -170q72 -53 163 -53q25 0 52 4q123 19 227.5 65t112.5 68q3 6 3 40q0 39 -4 114q-7 141 -16 274t-11 131l-7 -2q-6 -2 -19 -5t-27.5 -6t-37.5 -7l-39 -7q-16 -3 -42.5 -8.5t-38.5 -7.5q-6 0 -71 -5t-103.5 -13t-97 -27.5 t-98.5 -57.5t-58 -93q-24 -68 -24 -129q0 -55 19 -105zM854 733l53 17q20 6 149 16q108 8 162 8h19q21 -1 82 -1h71q121 1 205 3q42 1 68.5 1t36.5 -1q-14 135 -65.5 258t-96.5 178q-111 133 -254 134q-190 -1 -317 -191q-106 -156 -113 -422z" />
<glyph unicode="&#xe7;" horiz-adv-x="790" d="M55 702q0 166 64 347q47 137 154.5 227t219 124t224.5 34l4 -86q-6 0 -19 -2q-324 -35 -444 -191q-113 -145 -113 -455q0 -158 71 -325.5t130 -224.5q43 -43 183.5 -69t228.5 -26v-78q-90 0 -142 5l-18 -129q2 -2 20.5 0t47 -5.5t55.5 -19.5t42 -44q11 -23 11 -52 q0 -12 -2 -25q-6 -43 -38 -69.5t-65.5 -36t-83.5 -10.5h-30q-25 0 -36 1q-17 2 -40 7h-2l6 18q4 18 13 37l6 18l18 -4q20 -2 46 -4t52.5 0t46 14.5t21.5 36.5v7q0 56 -79 56q-18 0 -40 -3l-16 -2l-41 49q14 117 22 172q-231 41 -348 235q-129 213 -129 473z" />
<glyph unicode="&#xe8;" horiz-adv-x="1163" d="M92 702q0 139 64 347q53 172 176 277.5t276 105.5q164 0 289 -123t186 -330q23 -74 23 -277q-35 -2 -89 -4t-201 -4q-50 -1 -90 -1q-81 0 -128 3q-18 1 -37 1q-152 0 -377 -42q8 -147 64.5 -280t109.5 -185q137 -133 227 -133h3q70 2 129 34t94 68t89 67.5t116 33.5v-28 v-46l2 -24q-47 -2 -88 -27.5t-73 -58.5t-103.5 -62.5t-169.5 -38.5q-13 -1 -25 -1q-99 0 -172 57q-82 65 -166 198q-129 205 -129 473zM182 733l54 17q20 6 149 16q108 8 161 8h19q21 -1 82 -1h71q122 1 206 3q42 1 68 1t36 -1q-14 135 -65.5 258t-96.5 178 q-111 133 -254 134q-190 0 -317 -191q-107 -156 -113 -422zM385 1731l76 55q33 -76 84 -111q29 -20 84 -45.5t97 -42t46 -16.5q-4 -4 -14 -35l-8 -33h-1q-6 0 -57 18q-57 21 -124.5 48.5t-92.5 44.5q-14 10 -29.5 26.5t-25.5 31.5l-18 29q-9 13 -13 21z" />
<glyph unicode="&#xe9;" horiz-adv-x="1163" d="M92 702q0 -268 129 -473q84 -133 166 -197q73 -58 172 -58q12 0 25 1q98 8 169.5 38t103.5 63t73 58.5t88 27.5l-2 24v47v27q-61 -2 -115.5 -33.5t-89.5 -67.5t-94.5 -68t-128.5 -34h-3q-89 0 -227 133q-53 51 -109 184.5t-65 280.5q225 42 377 42q19 0 37 -1 q69 -3 143 -3q36 0 74 1q113 2 201 6l90 2q0 203 -23 277q-61 207 -186 330t-289 123q-154 0 -276.5 -105.5t-175.5 -277.5q-63 -207 -64 -347zM182 733q6 266 113 422q127 190 317 191q143 0 254 -134q45 -55 96.5 -178t65.5 -258q0 1 -46 1h-58q-105 -1 -208 -3 q-51 -1 -88.5 -1t-62.5 1h-19q-53 0 -161 -8q-129 -10 -149 -16zM391 1571q4 0 46 16.5t97.5 43t83.5 44.5q23 16 44.5 44t29.5 46l10 21l76 -55l-4 -9q-4 -8 -12 -21t-18.5 -28.5t-26 -32t-29.5 -26.5q-25 -16 -92.5 -44t-123.5 -48q-51 -19 -57 -19h-1l-8 33 q-10 31 -15 35z" />
<glyph unicode="&#xea;" horiz-adv-x="1163" d="M92 702q0 -268 129 -473q84 -133 166 -197q73 -58 172 -58q12 0 25 1q98 8 169.5 38t103.5 63t73 58.5t88 27.5l-2 24v47v27q-61 -2 -115.5 -33.5t-89.5 -67.5t-94.5 -68t-128.5 -34h-3q-89 0 -227 133q-53 51 -109 184.5t-65 280.5q225 42 377 42q19 0 37 -1 q69 -3 143 -3q36 0 74 1q113 2 201 6l90 2q0 203 -23 277q-61 207 -186 330t-289 123q-154 0 -276.5 -105.5t-175.5 -277.5q-63 -207 -64 -347zM182 733q6 266 113 422q127 190 317 191q143 0 254 -134q45 -55 96.5 -178t65.5 -258q0 1 -46 1h-58q-105 -1 -208 -3 q-51 -1 -88.5 -1t-62.5 1h-19q-53 0 -161 -8q-129 -10 -149 -16zM317 1587q18 6 138 84t120 82q0 2 69 -40l138 -83l68 -43l-62 -59l-217 139l-184 -127q-57 41 -70 47z" />
<glyph unicode="&#xeb;" horiz-adv-x="1163" d="M92 702q0 -268 129 -473q84 -133 166 -197q73 -58 172 -58q12 0 25 1q98 8 169.5 38t103.5 63t73 58.5t88 27.5l-2 24v47v27q-61 -2 -115.5 -33.5t-89.5 -67.5t-94.5 -68t-128.5 -34h-3q-89 0 -227 133q-53 51 -109 184.5t-65 280.5q225 42 377 42q19 0 37 -1 q69 -3 143 -3q36 0 74 1q113 2 201 6l90 2q0 203 -23 277q-61 207 -186 330t-289 123q-154 0 -276.5 -105.5t-175.5 -277.5q-63 -207 -64 -347zM182 733q6 266 113 422q127 190 317 191q143 0 254 -134q45 -55 96.5 -178t65.5 -258q0 1 -46 1h-58q-105 -1 -208 -3 q-51 -1 -88.5 -1t-62.5 1h-19q-53 0 -161 -8q-129 -10 -149 -16zM377 1522l2 94l94 -4l4 -90h-100zM684 1522l8 96l92 4v-100h-100z" />
<glyph unicode="&#xec;" horiz-adv-x="309" d="M-41 1731l76 55q33 -76 84 -111q29 -20 84 -45.5t97 -42t46 -16.5q-4 -4 -14 -35l-8 -33q-2 -2 -58.5 18.5t-124 48t-92.5 44.5q-14 10 -29.5 26.5t-25.5 32.5l-18 28q-9 13 -13 21zM115 281q0 545 8 708q2 35 6 243q3 139 3 185q0 23 -1 23l19 -2h38l19 -2l-4 -430 q0 -18 -3 -186.5t-7.5 -334.5t-4.5 -172v-313h-12q-8 0 -24 -1h-9q-9 0 -16 1h-10v66q0 49 -1 125.5t-1 89.5z" />
<glyph unicode="&#xed;" horiz-adv-x="309" d="M-35 1571q4 0 46 16.5t97.5 42t84.5 45.5q23 16 44 44t29 46l10 21l76 -55l-4 -9q-4 -8 -12 -21t-18.5 -28.5t-26 -32t-29.5 -26.5q-25 -16 -92.5 -44t-123.5 -48.5t-58 -18.5l-8 33q-10 31 -15 35zM115 281q0 545 8 708q2 35 6 243q3 139 3 185q0 23 -1 23l19 -2h38 l19 -2l-4 -430q0 -18 -3 -186.5t-7.5 -334.5t-4.5 -172v-313h-12q-8 0 -24 -1h-9q-9 0 -16 1h-10v66q0 49 -1 125.5t-1 89.5z" />
<glyph unicode="&#xee;" horiz-adv-x="309" d="M-104 1593q18 8 136 85t118 81q0 2 68 -40l138 -85l68 -41l-62 -59l-217 139l-184 -127q-51 41 -65 47zM115 281q0 545 8 708q2 35 6 243q3 139 3 185q0 23 -1 23l19 -2h38l19 -2l-4 -430q0 -18 -3 -186.5t-7.5 -334.5t-4.5 -172v-313h-12q-8 0 -24 -1h-9q-9 0 -16 1h-10 v66q0 49 -1 125.5t-1 89.5z" />
<glyph unicode="&#xef;" horiz-adv-x="309" d="M-49 1522l2 94l94 -4l4 -90h-100zM115 281q0 545 8 708q2 35 6 243q3 139 3 185q0 23 -1 23l19 -2h38l19 -2l-4 -430q0 -18 -3 -186.5t-7.5 -334.5t-4.5 -172v-313h-12q-8 0 -24 -1h-9q-9 0 -16 1h-10v66q0 49 -1 125.5t-1 89.5zM258 1522l8 96l92 4v-100h-100z" />
<glyph unicode="&#xf1;" d="M106 281q0 545 9 708q2 35 6 243q3 139 3 185q0 23 -1 23l18 -2h39l19 -2q-2 -72 -4 -156q103 158 323 158h6q98 -2 172 -38t109 -86t56.5 -100.5t23.5 -85.5l4 -34h-2v-88q0 -18 -3 -186.5t-7.5 -334.5t-4.5 -172v-313h-12q-8 0 -24 -1h-9q-9 0 -16 1h-10v66 q0 49 -1 125.5t-1 89.5q0 545 8 708q2 33 2 54.5t-2 31.5q0 10 -2 27.5t-17.5 62.5t-41 79t-81 62.5t-128.5 30.5q-80 0 -143.5 -20.5t-103.5 -55t-61.5 -63.5t-33.5 -57q-2 -55 -2 -89t2 -46q0 -18 -3.5 -186.5t-7.5 -334.5t-4 -172v-313h-12q-8 0 -24 -1h-9q-9 0 -16 1 h-10v66q0 49 -1.5 125.5t-1.5 89.5zM254 1596v13v8v5v2l20 14q18 12 58.5 27.5t83.5 15.5q63 -2 117.5 -30.5t70.5 -32.5q20 -4 62.5 10t72.5 31l31 18v-84q-12 -6 -30.5 -17t-63.5 -27q-36 -12 -61 -12q-7 0 -13 1q-25 4 -78 34t-106 32q-43 0 -84 -15.5t-60 -32.5l-18 -16 v2v7v11v11q0 6 -1 12t-1 13z" />
<glyph unicode="&#xf2;" horiz-adv-x="1159" d="M55 702q0 139 64 347q51 170 184 276.5t289 106.5q166 0 300 -125t195 -328q41 -133 41 -277q0 -117 -34.5 -248.5t-71.5 -185.5q-209 -293 -430 -293q-121 0 -226.5 68t-181.5 186q-129 205 -129 473zM145 700q0 -158 71 -325.5t130 -224.5q94 -92 250 -93 q186 0 318.5 188.5t132.5 454.5q0 141 -58.5 292t-118.5 220q-111 133 -274 134q-96 0 -186.5 -50.5t-151.5 -140.5q-113 -168 -113 -455zM383 1731l76 55q33 -76 84 -111q29 -20 84 -45.5t97 -42t46 -16.5q-4 -4 -12 -35l-10 -33h-1q-6 0 -57 18q-57 21 -124.5 48.5 t-92.5 44.5q-14 10 -29.5 26.5t-25.5 31.5l-18 29q-9 13 -13 21z" />
<glyph unicode="&#xf3;" horiz-adv-x="1159" d="M55 702q0 139 64 347q51 170 184 276.5t289 106.5q166 0 300 -125t195 -328q41 -133 41 -277q0 -117 -34.5 -248.5t-71.5 -185.5q-209 -293 -430 -293q-121 0 -226.5 68t-181.5 186q-129 205 -129 473zM145 700q0 -158 71 -325.5t130 -224.5q94 -92 250 -93 q186 0 318.5 188.5t132.5 454.5q0 141 -58.5 292t-118.5 220q-111 133 -274 134q-96 0 -186.5 -50.5t-151.5 -140.5q-113 -168 -113 -455zM389 1571q4 0 46 16.5t97.5 43t83.5 44.5q23 16 44.5 44t31.5 46l8 21l76 -55l-4 -9q-4 -8 -12 -21t-18.5 -28.5t-26 -32t-29.5 -26.5 q-25 -16 -92.5 -44t-123.5 -49q-51 -18 -57 -18h-1l-11 33q-8 31 -12 35z" />
<glyph unicode="&#xf4;" horiz-adv-x="1159" d="M55 702q0 139 64 347q51 170 184 276.5t289 106.5q166 0 300 -125t195 -328q41 -133 41 -277q0 -117 -34.5 -248.5t-71.5 -185.5q-209 -293 -430 -293q-121 0 -226.5 68t-181.5 186q-129 205 -129 473zM145 700q0 -158 71 -325.5t130 -224.5q94 -92 250 -93 q186 0 318.5 188.5t132.5 454.5q0 141 -58.5 292t-118.5 220q-111 133 -274 134q-96 0 -186.5 -50.5t-151.5 -140.5q-113 -168 -113 -455zM315 1573q18 6 138 84t120 82q0 2 69 -40l136 -85l70 -41l-62 -60l-217 140l-184 -127q-57 41 -70 47z" />
<glyph unicode="&#xf5;" horiz-adv-x="1159" d="M55 702q0 139 64 347q51 170 184 276.5t289 106.5q166 0 300 -125t195 -328q41 -133 41 -277q0 -117 -34.5 -248.5t-71.5 -185.5q-209 -293 -430 -293q-121 0 -226.5 68t-181.5 186q-129 205 -129 473zM145 700q0 -158 71 -325.5t130 -224.5q94 -92 250 -93 q186 0 318.5 188.5t132.5 454.5q0 141 -58.5 292t-118.5 220q-111 133 -274 134q-96 0 -186.5 -50.5t-151.5 -140.5q-113 -168 -113 -455zM322 1588v12v9v5v2l18 14q20 12 60 27.5t83 15.5q63 -2 117.5 -30.5t71.5 -32.5q20 -4 62 10t73 31l31 18v-84q-12 -6 -31 -17.5 t-64 -26.5q-36 -12 -60 -12q-7 0 -13 1q-25 4 -78 33.5t-107 31.5q-43 0 -84 -15t-59 -32l-18 -16v2v7v10v11q0 7 -1 13t-1 13z" />
<glyph unicode="&#xf6;" horiz-adv-x="1159" d="M55 702q0 139 64 347q51 170 184 276.5t289 106.5q166 0 300 -125t195 -328q41 -133 41 -277q0 -117 -34.5 -248.5t-71.5 -185.5q-209 -293 -430 -293q-121 0 -226.5 68t-181.5 186q-129 205 -129 473zM145 700q0 -158 71 -325.5t130 -224.5q94 -92 250 -93 q186 0 318.5 188.5t132.5 454.5q0 141 -58.5 292t-118.5 220q-111 133 -274 134q-96 0 -186.5 -50.5t-151.5 -140.5q-113 -168 -113 -455zM375 1522l2 94l94 -4l4 -90h-100zM682 1522l8 96l92 4v-100h-100z" />
<glyph unicode="&#xf7;" horiz-adv-x="659" d="M31 735q18 0 164.5 -3t291 -7t150.5 -4l2 -74q-440 0 -604 8zM260 430l12 145l148 -6v-151zM260 823l12 146l148 -6v-152z" />
<glyph unicode="&#xf8;" horiz-adv-x="1175" d="M51 702q0 139 64 347q51 170 184 276.5t289 106.5q147 0 272 -103l43 107h24q21 0 44 -2h24l-71 -164q109 -121 159 -291q41 -133 41 -277q0 -117 -34.5 -248.5t-71.5 -185.5q-209 -293 -430 -293q-147 0 -266 95l-48 -72q-86 0 -96 4l78 127q-43 45 -76 100 q-129 205 -129 473zM141 700q0 -131 49.5 -270t110.5 -231q283 444 291 467l237 585q-104 94 -237 95q-96 0 -186.5 -50.5t-151.5 -140.5q-113 -168 -113 -455zM362 131q92 -74 230 -74q186 0 318 188.5t132 454.5q0 127 -48 261.5t-105 222.5q-209 -492 -225 -551 q-18 -63 -302 -502z" />
<glyph unicode="&#xf9;" horiz-adv-x="1069" d="M143 1006q6 78 25.5 187.5t36.5 178.5l16 72h6q4 0 14.5 1t18.5 1t17.5 1t13.5 1h6q-2 0 -16.5 -79t-33 -192.5t-24.5 -187.5q-8 -88 -9 -191v-50q0 -70 2 -118q3 -63 8 -147t5 -92v-2q-2 -8 2.5 -36.5t22.5 -76t49 -90.5t94.5 -75.5t149.5 -34.5h18q87 0 154 35 q74 39 110.5 100t52 100t21.5 70q-12 516 -12 608v17l-4 430h6q4 0 14.5 1t18.5 1t17 1t15 1h5q-1 0 -1 -23q0 -46 3 -185q4 -208 6 -243q2 -33 8 -602v-106q0 -12 -1 -89t-1 -127v-65h-19h-34h-19v188q-116 -184 -337 -184h-21q-88 4 -158 30.5t-109.5 68.5t-67.5 85 t-38 89.5t-14 69t-4 36.5q-18 210 -18 414q0 105 5 209zM338 1731l76 55q33 -76 84 -111q29 -20 84 -45.5t97 -42t46 -16.5q-4 -4 -12 -35l-11 -33h-1q-6 0 -57 19q-56 20 -123.5 47.5t-92.5 44.5q-14 10 -29.5 26.5t-26 32t-18.5 28.5t-12 21z" />
<glyph unicode="&#xfa;" horiz-adv-x="1069" d="M143 1006q-5 -103 -5 -209q0 -203 18 -414q0 -14 4 -36.5t14 -69t38 -89.5t67.5 -85t109.5 -68.5t158 -30.5h19q224 0 339 184v-188h12q9 0 24 -1h10q9 0 16 1h10v65q0 50 1 126.5t1 89.5q0 545 -8 708q-2 35 -6 243q-3 139 -3 185q0 23 1 23l-19 -2h-39l-18 -2l4 -430 v-17q0 -92 12 -608q-6 -31 -21.5 -70t-52 -100t-110.5 -100q-67 -35 -154 -35h-18q-86 2 -149.5 34.5t-94.5 75.5t-49 90.5t-22.5 76t-2.5 36.5v2q0 8 -5 92t-8 147q-2 48 -2 118v49q1 104 9 192q6 74 24.5 187.5t33 192.5t16.5 79l-18 -2h-37l-21 -2q-63 -262 -78 -438z M344 1571q4 0 46 16.5t97.5 43t83.5 44.5q23 16 44.5 44t31.5 46l8 21l76 -55l-4 -9q-4 -8 -12 -21t-18.5 -28.5t-26 -32t-29.5 -26.5q-25 -16 -92.5 -44t-123.5 -49q-51 -18 -57 -18h-1l-11 33q-8 31 -12 35z" />
<glyph unicode="&#xfb;" horiz-adv-x="1069" d="M143 1006q-5 -103 -5 -209q0 -203 18 -414q0 -14 4 -36.5t14 -69t38 -89.5t67.5 -85t109.5 -68.5t158 -30.5h19q224 0 339 184v-188h12q9 0 24 -1h10q9 0 16 1h10v65q0 50 1 126.5t1 89.5q0 545 -8 708q-2 35 -6 243q-3 139 -3 185q0 23 1 23l-19 -2h-39l-18 -2l4 -430 v-17q0 -92 12 -608q-6 -31 -21.5 -70t-52 -100t-110.5 -100q-67 -35 -154 -35h-18q-86 2 -149.5 34.5t-94.5 75.5t-49 90.5t-22.5 76t-2.5 36.5q0 6 -5 92t-8 148q-2 47 -2 118v49q1 105 9 193q6 74 24.5 187.5t33 192.5t16.5 79l-18 -2h-37l-21 -2q-63 -262 -78 -438z M324 1581q18 6 138 84t120 82q0 2 68 -40l136 -85l70 -41l-61 -59l-217 139l-185 -127q-57 41 -69 47z" />
<glyph unicode="&#xfc;" horiz-adv-x="1069" d="M143 1006q-5 -103 -5 -209q0 -203 18 -414q0 -14 4 -36.5t14 -69t38 -89.5t67.5 -85t109.5 -68.5t158 -30.5h19q224 0 339 184v-188h12q9 0 24 -1h10q9 0 16 1h10v65q0 50 1 126.5t1 89.5v106q-6 569 -8 602q-2 35 -6 243q-3 139 -3 185q0 23 1 23l-19 -2h-39l-18 -2 l4 -430v-17q0 -92 12 -608q-6 -31 -21.5 -70t-52 -100t-110.5 -100q-67 -35 -154 -35h-18q-86 2 -149.5 34.5t-94.5 75.5t-49 90.5t-22.5 76t-2.5 36.5q0 6 -5 92t-8 148q-2 47 -2 118v49q1 105 9 193q6 74 24.5 187.5t33 192.5t16.5 79l-18 -2h-37l-21 -2 q-63 -262 -78 -438zM330 1522l2 94l94 -4l4 -90h-100zM637 1522l8 96l92 4v-100h-100z" />
<glyph unicode="&#xfd;" horiz-adv-x="843" d="M41 1169.5q0 24.5 3 145.5q3 119 5 119q1 0 4.5 -0.5t7 -0.5h9.5q18 1 38.5 0t20.5 -3v-5q-9 -89 -9 -166q0 -205 64 -321q56 -105 164 -105q8 0 17 1q233 16 313 149l-10 449q92 0 92 4t1 -98.5t2 -247.5l2 -295q1 -150 1 -262.5t-2 -131.5q0 -2 -2 -26.5t-3 -41 t-7.5 -49t-13.5 -56t-20 -56.5t-30.5 -57.5t-43.5 -50t-57.5 -42t-73.5 -27.5t-91 -11h-12q-111 0 -189 36q-82 39 -117.5 99.5t-49.5 108.5q-11 42 -11 78v11h86q0 -25 3 -48t19.5 -62t45 -66.5t88 -51t141.5 -26.5h8q65 0 113 31q51 33 78.5 92.5t44 127t19.5 146.5t3 135 t-4 111.5t-4 59.5q0 45 -2 90q-163 -113 -322 -113q-31 0 -63 5q-80 10 -137.5 72.5t-80 143t-30.5 131t-8 75zM231 1571q4 0 46 16.5t97.5 43t84.5 44.5q23 16 44 44t29 46l11 21l75 -55l-4 -9q-4 -8 -12 -21t-18.5 -28.5t-25.5 -32t-30 -26.5q-25 -16 -92 -44t-124 -49 q-51 -18 -57 -18h-1l-8 33q-10 31 -15 35z" />
<glyph unicode="&#xff;" horiz-adv-x="868" d="M41 1169.5q0 24.5 3 145.5q3 119 5 119q1 0 4.5 -0.5t7 -0.5h9.5q18 1 38.5 0t20.5 -3v-5q-9 -89 -9 -166q0 -205 64 -321q56 -105 164 -105q8 0 17 1q233 16 313 149l-10 449q92 0 92 4t1 -98.5t2 -247.5l2 -295q1 -150 1 -262.5t-2 -131.5q0 -2 -2 -26.5t-3 -41 t-7.5 -49t-13.5 -56t-20 -56.5t-30.5 -57.5t-43.5 -50t-57.5 -42t-73.5 -27.5t-91 -11h-12q-111 0 -189 36q-82 39 -117.5 99.5t-49.5 108.5q-11 42 -11 78v11h86q0 -25 3 -48t19.5 -62t45 -66.5t88 -51t141.5 -26.5h8q65 0 113 31q51 33 78.5 92.5t44 127t19.5 146.5t3 135 t-4 111.5t-4 59.5q0 45 -2 90q-163 -113 -322 -113q-31 0 -63 5q-80 10 -137.5 72.5t-80 143t-30.5 131t-8 75zM229 1522l2 94l95 -4l4 -90h-101zM537 1522l8 96l92 4v-100h-100z" />
<glyph unicode="&#x152;" horiz-adv-x="2078" d="M51 702q0 139 64 347q36 121 118 213q150 170 355 170q186 0 334 -160q113 129 161 141q102 28 170 28q15 0 29 -1l74 -4h98q29 -2 222 -2h229q27 0 63.5 2t59.5 2l24 2l6 -80l-704 4q-4 -183 -4 -275q0 -62 2 -83q0 -76 -6 -287q52 3 83 3q15 0 25 -1q29 -2 165 -3 t159 -1q25 0 65.5 -1t65.5 -3h22l2 -68l-587 4q-8 -328 -9 -336v-247q12 0 55.5 2t61.5 0q29 -2 222 -2h229q27 0 63.5 2t59.5 2l24 2l6 -80l-774 6v2h-18v65q0 50 -1 126.5t-1 89.5q0 545 8 708q0 12 2 79t4 156t2 138q-133 0 -205 -49q-10 -6 -104 -101q74 -106 112 -233 q41 -133 41 -277q0 -117 -34.5 -248.5t-71.5 -185.5q-209 -293 -430 -293q-121 0 -226.5 68t-181.5 186q-129 205 -129 473zM141 700q0 -158 71 -325.5t130 -224.5q94 -92 250 -93q186 0 318 188.5t132 454.5q0 221 -135 451q-251 -234 -466 -234q-25 0 -50 3 q-162 18 -186 141q-64 -154 -64 -361zM233 1262l11 -11zM276 1131q-1 -7 -1 -15q0 -28 11 -51q13 -29 63 -51q46 -19 120 -19h14q178 4 383 217q-110 134 -274 134q-172 0 -297 -138q-4 -8 -10 -23.5t-9 -53.5z" />
<glyph unicode="&#x153;" horiz-adv-x="2080" d="M51 702q0 139 64 347q51 170 184 276.5t289 106.5q166 0 300 -125t195 -328q0 -4 2 -6q8 33 23 76q53 172 176 277.5t277 105.5q164 0 288.5 -123t186.5 -330q22 -71 22 -260v-17q-35 -2 -89 -4t-202 -4q-49 -1 -89 -1q-81 0 -128 3q-20 1 -41 1q-162 0 -372 -42 q8 -147 64 -280t110 -185q137 -133 226 -133h3q70 2 129.5 34t94 68t89 67.5t115.5 33.5v-28q0 -21 2 -46v-24q-47 -2 -88 -27.5t-72.5 -58.5t-103.5 -62.5t-170 -38.5q-13 -1 -25 -1q-99 0 -172 57q-82 65 -165 198q-57 94 -91 199q-33 -113 -65 -160q-209 -293 -430 -293 q-121 0 -226.5 68t-181.5 186q-129 205 -129 473zM141 700q0 -158 71 -325.5t130 -224.5q94 -92 250 -93q186 0 318 188.5t132 454.5q0 141 -58 292t-118 220q-111 133 -274 134q-96 0 -186.5 -50.5t-151.5 -140.5q-113 -168 -113 -455zM1135 733l53 17q20 6 149 16 q108 8 162 8h19q21 -1 82 -1h71q121 1 205 3q42 1 68 1t36 -1q-14 135 -65 258t-96 178q-111 133 -254 134q-191 -1 -318 -191q-106 -156 -112 -422z" />
<glyph unicode="&#x178;" horiz-adv-x="946" d="M49 1430l41 -80l87 -166q44 -86 50 -101q12 -35 244 -436q-6 -119 -6 -360q0 -12 1 -89t1 -126v-66h16h37h19v313q0 23 3 87.5t6 150.5t5 127l61 141q8 20 140.5 313.5t134.5 293.5l-23 2q-23 0 -47 2l-24 2q0 2 -37 -89.5t-45 -113.5l-209 -463l-211 379l-152 281 q-2 2 -47 1t-45 -3zM268 1585l2 94l95 -4l4 -90h-101zM575 1585l9 96l92 5v-101h-101z" />
<glyph unicode="&#x2c6;" horiz-adv-x="1705" d="M340 1186q18 6 138 84t120 82q0 2 68 -40l137 -83l69 -43l-61 -60l-217 140l-184 -127q-57 41 -70 47z" />
<glyph unicode="&#x2dc;" horiz-adv-x="610" d="M43 1185v12v8v5v2l18 13q20 14 60.5 29.5t83.5 15.5q63 -2 117.5 -31t70.5 -33q20 -4 62.5 10.5t72.5 32.5l31 17v-84q-12 -6 -30.5 -17.5t-63.5 -27.5q-36 -12 -61 -12q-7 0 -13 1q-25 4 -78 34t-106 32q-43 0 -84 -15.5t-60 -31.5l-18 -17v2v8v10v11q0 6 -1 12.5 t-1 13.5z" />
<glyph unicode="&#x2000;" horiz-adv-x="923" />
<glyph unicode="&#x2001;" horiz-adv-x="1847" />
<glyph unicode="&#x2002;" horiz-adv-x="923" />
<glyph unicode="&#x2003;" horiz-adv-x="1847" />
<glyph unicode="&#x2004;" horiz-adv-x="615" />
<glyph unicode="&#x2005;" horiz-adv-x="461" />
<glyph unicode="&#x2006;" horiz-adv-x="307" />
<glyph unicode="&#x2007;" horiz-adv-x="307" />
<glyph unicode="&#x2008;" horiz-adv-x="230" />
<glyph unicode="&#x2009;" horiz-adv-x="369" />
<glyph unicode="&#x200a;" horiz-adv-x="102" />
<glyph unicode="&#x2010;" horiz-adv-x="677" d="M31 735q18 0 164.5 -3t291 -7t150.5 -4l2 -74q-440 0 -604 8z" />
<glyph unicode="&#x2011;" horiz-adv-x="677" d="M31 735q18 0 164.5 -3t291 -7t150.5 -4l2 -74q-440 0 -604 8z" />
<glyph unicode="&#x2012;" horiz-adv-x="677" d="M31 735q18 0 164.5 -3t291 -7t150.5 -4l2 -74q-440 0 -604 8z" />
<glyph unicode="&#x2013;" d="M31 647v88h955v-88h-955z" />
<glyph unicode="&#x2014;" horiz-adv-x="2048" d="M31 647v88h1979v-88h-1979z" />
<glyph unicode="&#x2018;" horiz-adv-x="264" d="M23 1067q-2 48 -2 90q0 133 24 195q14 37 61.5 70.5t86.5 47.5l38 17l13 -80q-4 4 -11 4q-22 0 -75 -37q-68 -50 -68 -141v-10h78q0 -4 1 -11.5t4 -26t5 -35.5t5 -33.5t5 -26.5l2 -11q2 0 -39.5 -3t-84.5 -7z" />
<glyph unicode="&#x2019;" horiz-adv-x="303" d="M20 1149q3 -5 12 -5q22 0 79 30q78 43 86 141l-78 10v25v47q0 33 -1 53t-3 20l40 -2l85 -4l43 -2q-14 -203 -58 -280q-18 -35 -68.5 -62.5t-90.5 -38.5l-41 -10z" />
<glyph unicode="&#x201a;" horiz-adv-x="458" d="M109 -162q2 -5 11 -5q21 0 79 28q78 43 86 141l-78 10v24v48q0 33 -1 53.5t-3 20.5l40 -2l85 -4l43 -2q-14 -203 -58 -281q-18 -35 -68 -62.5t-91 -37.5l-41 -11z" />
<glyph unicode="&#x201c;" horiz-adv-x="493" d="M23 1067q-2 48 -2 90q0 133 24 195q14 37 61.5 70.5t86.5 47.5l38 17l13 -80q-4 4 -11 4q-22 0 -75 -37q-68 -50 -68 -141v-10h78q0 -4 1 -11.5t4 -26t5 -35.5t5 -33.5t5 -26.5l2 -11q2 0 -39.5 -3t-84.5 -7zM252 1067q-2 48 -2 90q0 133 24 195q14 37 61.5 70.5 t86.5 47.5l39 17l12 -80q-4 4 -11 4q-22 0 -75 -37q-68 -50 -68 -141v-10h78q0 -4 1 -11.5t4.5 -26t5.5 -35.5t5 -33.5t5 -26.5l2 -11q2 0 -40 -3t-85 -7z" />
<glyph unicode="&#x201d;" horiz-adv-x="526" d="M20 1149q3 -5 12 -5q22 0 79 30q78 43 86 141l-78 10v24v48q0 33 -1 53t-3 20l40 -2l85 -4l43 -2q-14 -203 -58 -280q-18 -35 -68.5 -62.5t-90.5 -38.5l-41 -10zM244 1149q3 -5 12 -5q22 0 78 30q78 43 86 141l-78 10v25v47q0 33 -1 53t-3 20l40 -2l85 -4l43 -2 q-14 -203 -57 -280q-18 -35 -68.5 -62.5t-91.5 -38.5l-41 -10z" />
<glyph unicode="&#x201e;" horiz-adv-x="552" d="M27 -172q2 -6 11 -6q21 0 79 28q78 43 86 142l-78 10v24v47q0 33 -1 53.5t-3 20.5l40 -2l85 -4l43 -2q-14 -203 -58 -280q-18 -35 -68 -62.5t-91 -38.5l-41 -10zM250 -172q2 -6 11 -6q21 0 79 28q78 43 86 142l-78 10v24v47q0 33 -1 53.5t-3 20.5l40 -2l85 -4l43 -2 q-14 -203 -57 -280q-18 -35 -68.5 -62.5t-91.5 -38.5l-41 -10z" />
<glyph unicode="&#x2022;" horiz-adv-x="235" d="M23 649q0 41 26.5 72t65.5 31t66.5 -31t27.5 -72t-27.5 -71.5t-66.5 -30.5t-65.5 30.5t-26.5 71.5z" />
<glyph unicode="&#x2026;" horiz-adv-x="1124" d="M94 14l12 146l148 -6v-152zM469 14l12 146l148 -6v-152zM844 14l12 146l148 -6v-152z" />
<glyph unicode="&#x202f;" horiz-adv-x="369" />
<glyph unicode="&#x2044;" horiz-adv-x="817" d="M0 2q2 6 201.5 319.5t212.5 344.5q8 23 87 215l150 372l74 183h25q20 0 45 -2h22q-307 -717 -332 -801q-10 -37 -107 -195l-190 -299l-92 -141q-86 0 -96 4z" />
<glyph unicode="&#x205f;" horiz-adv-x="461" />
<glyph unicode="&#x20ac;" horiz-adv-x="927" d="M0 557q80 33 147 53q-4 29 -4 92v52l-25 -8l-22 -9t-19 -7t-16.5 -6t-13.5 -5t-8 -4l-2 -2q-37 68 -37 67q86 35 154 56q14 106 53 213q47 137 154.5 227t219 124t224.5 34l4 -86q-6 0 -18 -2q-324 -35 -445 -191q-84 -106 -104 -305q15 1 30 1q22 0 43 -2q37 -3 62.5 -8 t69.5 -15l71 -17q44 -8 75 -8q10 0 18 1q36 3 53 13l16 8q6 -86 6 -88q0 -15 -59 -15q-18 0 -41 1q-47 4 -163 28.5t-151 26.5q-25 0 -39 -2v-74q0 -49 5 -73q22 2 42 2q25 0 47 -3q40 -5 103.5 -20.5t87.5 -19.5q44 -8 75 -8q10 0 18 1q36 3 53 11l16 10q6 -86 6 -88 q0 -15 -59 -15q-18 0 -41 1q-47 4 -163 28.5t-151 26.5h-22q27 -129 84 -246t100 -157q43 -43 183.5 -69t228.5 -26v-78q-70 0 -111 2.5t-116.5 14.5t-128 36.5t-114 76t-104.5 122.5q-86 141 -114 306q-31 -8 -59.5 -18.5t-45 -18t-16.5 -9.5z" />
<glyph unicode="&#x2122;" horiz-adv-x="2011" d="M0 1382l6 84q14 -2 45 -11t56.5 -13t62.5 -4q119 0 265.5 14t232.5 27l88 12l2 -21l8 -36l2 -19l-37 -6q-37 -4 -105.5 -14.5t-127.5 -16.5q-61 -8 -92 -10q0 -256 8 -379q8 -164 8 -708q0 -12 -1 -89t-1 -126v-66h-19h-34h-19v313q0 6 -4 172t-7 334t-3 187 q0 127 -4 356q-40 -3 -80 -3q-121 0 -250 23zM893 281q0 545 8 708q8 156 8 438l-2 7h2v6l19 -2h39l18 -2v-2h4l408 -1104l409 1104h6v6l19 -2h37l20 -2l-4 -430q0 -18 -3 -186.5t-7 -334.5t-4 -172v-313h-12q-9 0 -24 -1h-10q-9 0 -16 1h-10v66q0 49 -1 125.5t-1 89.5 q0 545 8 708q0 8 1 44t3 90.5t2 99.5l-370 -1000h-84l-375 1010v-227q0 -18 -3 -186.5t-7 -334.5t-4 -172v-313h-13q-8 0 -24 -1h-9q-9 0 -16 1h-10v66q0 49 -1 125.5t-1 89.5z" />
<glyph unicode="&#xe000;" horiz-adv-x="1380" d="M0 1380h1380v-1380h-1380v1380z" />
<glyph unicode="&#xfb01;" horiz-adv-x="1050" d="M86 965q49 33 117 36v136l2 98q2 12 9 30.5t33.5 66.5t60.5 84t96 66q57 27 126 27h9q248 -4 299 -194q9 -37 9 -69q0 -11 -1 -21q-1 -88 -1 -142.5t1 -76.5q0 -18 -3 -186.5t-7.5 -334.5t-4.5 -172v-313h-12q-8 0 -23.5 -1t-25.5 1h-10v66q0 49 -1 125.5t-1 89.5 q0 545 8 708q2 33 3 134v56q0 45 -1 46v20q0 12 -10 46t-30.5 59.5t-69 49t-117.5 25.5h-11q-73 0 -134 -51q-66 -55 -96 -110.5t-24 -57.5v-37q0 -84 3 -178q6 0 14 -4q49 -18 96 -18t92 18q20 8 35.5 18.5t20.5 18.5l6 6l51 -59q-10 -10 -30.5 -24.5t-80.5 -34.5 q-44 -15 -87 -15q-17 0 -34 2q-49 6 -81 12q8 -385 8 -450q-2 -33 -6 -273q-3 -159 -3 -212q0 -27 1 -27l-19 2h-37l-20 2l4 491q-2 16 -6 486h-17q-29 -2 -86 -47z" />
<glyph unicode="&#xfb02;" horiz-adv-x="1144" d="M86 965q49 33 117 36v136l2 98q2 12 9 30.5t33.5 66.5t60.5 84t96 66q57 27 126 27h9q248 -4 299 -194q9 -37 9 -69q0 -11 -1 -21q-1 -88 -1 -142.5t1 -76.5q0 -18 -3 -186.5t-7.5 -334.5t-4.5 -172v-344q23 -4 105 -41t127 -39q53 0 102 17.5t72 36.5l25 16q2 -4 6 -10 l13 -19q9 -14 13 -22l6 -8l-4 -4l-11 -11q-7 -8 -19.5 -16t-30.5 -16.5t-39.5 -15.5t-52.5 -12t-66 -5h-7q-78 0 -155 43q-81 45 -155 47v194q-2 72 -2 177q0 545 8 708q2 33 3 134v56q0 45 -1 46v20q0 12 -10 46t-30.5 59.5t-69 49t-117.5 25.5h-11q-73 0 -134 -51 q-66 -55 -96 -110.5t-24 -57.5v-37q0 -84 3 -178q6 0 14 -4q49 -18 96 -18t92 18q20 8 35.5 18.5t20.5 18.5l6 6l51 -59q-10 -10 -30.5 -24.5t-80.5 -34.5q-44 -15 -87 -15q-17 0 -34 2q-49 6 -81 12q8 -385 8 -450q-2 -33 -6 -273q-3 -159 -3 -212q0 -27 1 -27l-19 2h-37 l-20 2l4 491q-2 16 -6 486h-17q-29 -2 -86 -47z" />
<glyph unicode="&#xfb03;" horiz-adv-x="1655" d="M61 965q49 33 117 36v136l2 98q2 10 5 28.5t18.5 64.5t39 81t69.5 63.5t103.5 28.5t111 -21.5t77.5 -41.5l25 -23l-47 -63q-4 8 -18.5 22.5t-56.5 33.5t-93 19q-57 0 -98.5 -55t-55.5 -109.5t-8 -56.5v-37q0 -84 2 -178q6 0 14 -4q49 -19 96 -19t93 19q20 8 35.5 18.5 t19.5 18.5l6 6l51 -59q-10 -10 -30.5 -24.5t-80.5 -34.5q-44 -15 -87 -15q-16 0 -33 2q-49 6 -82 12q8 -385 8 -450q-2 -33 -6 -273q-3 -159 -3 -212q0 -27 1 -27l-18 2h-37l-21 2l4 491q-2 16 -6 486h-16q-29 -2 -86 -47zM720 965q49 33 117 36v136l2 98q2 10 5 28.5 t18.5 64.5t39 81t69.5 63.5t103.5 28.5t111 -21.5t77.5 -41.5l25 -23l-47 -63q-4 8 -18.5 22.5t-56.5 33.5t-93 19q-57 0 -98.5 -55t-55.5 -109.5t-8 -56.5v-37q0 -84 2 -178q6 0 14 -4q49 -19 96 -19t93 19q20 8 35.5 18.5t19.5 18.5l6 6l51 -59q-10 -10 -30.5 -24.5 t-81.5 -34.5q-43 -15 -86 -15q-16 0 -33 2q-49 6 -82 12q8 -385 8 -450q-2 -33 -6 -273q-3 -159 -3 -212q0 -27 1 -27l-18 2h-37l-21 2l4 491q-2 16 -6 486h-16q-29 -2 -86 -47zM1441 281q0 545 8 708q2 35 6 243q3 139 3 185q0 23 -1 23l19 -2h39l18 -2l-4 -430 q0 -18 -3 -186.5t-7 -334.5t-4 -172v-313h-13q-8 0 -24 -1h-9q-9 0 -16 1h-10v66q0 49 -1 125.5t-1 89.5z" />
<glyph unicode="&#xfb04;" horiz-adv-x="1875" d="M61 965q49 33 117 36v136l2 98q2 10 5 28.5t18.5 64.5t39 81t69.5 63.5t103.5 28.5t111 -21.5t77.5 -41.5l25 -23l-47 -63q-4 8 -18.5 22.5t-56.5 33.5t-93 19q-57 0 -98.5 -55t-55.5 -109.5t-8 -56.5v-37q0 -84 2 -178q6 0 14 -4q49 -19 96 -19t93 19q20 8 35.5 18.5 t19.5 18.5l6 6l51 -59q-10 -10 -30.5 -24.5t-80.5 -34.5q-44 -15 -87 -15q-16 0 -33 2q-49 6 -82 12q8 -385 8 -450q-2 -33 -6 -273q-3 -159 -3 -212q0 -27 1 -27l-18 2h-37l-21 2l4 491q-2 16 -6 486h-16q-29 -2 -86 -47zM720 965q49 33 117 36v136l2 98q2 10 5 28.5 t18.5 64.5t39 81t69.5 63.5t103.5 28.5t111 -21.5t77.5 -41.5l25 -23l-47 -63q-4 8 -18.5 22.5t-56.5 33.5t-93 19q-57 0 -98.5 -55t-55.5 -109.5t-8 -56.5v-37q0 -84 2 -178q6 0 14 -4q49 -19 96 -19t93 19q20 8 35.5 18.5t19.5 18.5l6 6l51 -59q-10 -10 -30.5 -24.5 t-81.5 -34.5q-43 -15 -86 -15q-16 0 -33 2q-49 6 -82 12q8 -385 8 -450q-2 -33 -6 -273q-3 -159 -3 -212q0 -27 1 -27l-18 2h-37l-21 2l4 491q-2 16 -6 486h-16q-29 -2 -86 -47zM1441 281q0 545 8 708q2 35 6 243q3 139 3 185q0 23 -1 23l19 -2h39l18 -2l-4 -430 q0 -18 -3 -186.5t-7 -334.5t-4 -172v-227q101 -3 148 -3q23 0 32 1h77h107h55l2 -23q4 -20 7 -41l2 -22l-430 2h-7h-20h-31h-14v66q0 49 -1 125.5t-1 89.5z" />
</font>
</defs>
</svg>
